Большие гонки / The Great Race (1965) BDRip [720p]

 
Автор Сообщение

sergej644 ®

Пол:

Стаж: 4 года 11 месяцев

Сообщений: 6043

Откуда: Soviet Union



Награды: Нет

Торрент-статистика

Создавать темы 18-Окт-2014 20:27

[Цитировать]

-Большие гонки / The Great Race (1965) BDRip [720p]
« THE GREAT LAUGH SHOW OF ALL TIME! »
- Год выпуска: 1965
Производство: США | Warner Bros. Pictures, Jalem Productions, Patricia, Reynard
Жанр: Мелодрама, Комедия, Приключения, Семейный, Спорт
Режиссер: Блейк Эдвардс
Продюсер: Мартин Джуроу, Дик Крокетт
Актеры: Джек Леммон, Тони Кертис, Натали Вуд, Питер Фальк, Кинен Уинн, Артур О’Коннелл, Вивиан Вэнс, Дороти Провайн, Ларри Сторч, Росс Мартин, Джордж Макреди, Марвин Каплан, Хэл Смит, Денвер Пайл, Уильям Брайант, Ричард Александр, Грег Бенедикт
Описание фильма: Начало ХХ века. Знаменитый испытатель, рыцарь без страха и упрека, всегда с иголочки одетый во все белое, Лесли по прозвищу Великий организует беспрецедентный автопробег Нью-Йорк-Париж. Завистливый и злобный изобретатель профессор Фэйт со своим верным слугой Максом принимает вызов Лесли. Он готов на все, лишь бы тот не добрался до финиша живым. Но какое приключение без женщины. И она появляется - красотка Мэгги обещает редактору ежедневной газеты сделать сенсационный репортаж с места событий и отправляется навстречу опасностям за рулем своей колымаги. Гонка стартовала, герой, красавица и злодей отправляются в путь…
Перевод 1: Профессиональный (Полное дублирование) Ленфильм
Перевод 2: Профессиональный (Многоголосый закадровый) DVD Magic
Вид субтитров: Вшитые отключаемые
Язык субтитров: Русский, английский- -Продолжительность: 02:39:58
Возраст 0+: Для любой зрительской аудитории
Дата мировой премьеры: 1 июля 1965
Качество видео: BDRip [720p]
Видео: MPEG-4 AVC/H.264, 7000 Kbps, 1280 x 534
Аудио 1: Русский AC3 2.0, 192 Kbps, 48.0 KHz (Полное дублирование)
Аудио 2: Русский AC3 5.1, 384 Kbps, 48.0 KHz (Многоголосый закадровый)
Аудио 3: Английский DTS 5.1, 1509 Kbps, 48.0 KHz (Оригинал)-

Blu-ray

MediaInfo

Общее
Полное имя : Большие гонки.mkv
Формат : Matroska
Версия формата : Version 2
Размер файла : 10,2 Гбайт
Продолжительность : 2 ч. 39 м.
Общий поток : 9105 Кбит/сек
Дата кодирования : UTC 2014-09-29 18:11:46
Программа кодирования : mkvmerge v5.3.0 ('I could have danced') built on Feb 9 2012 10:38:07
Библиотека кодирования : libebml v1.2.3 + libmatroska v1.3.0
Видео
Идентификатор : 1
Формат : AVC
Формат/Информация : Advanced Video Codec
Профиль формата : [url=mailto:High@L4.1]High@L4.1[/url]
Параметр CABAC формата : Да
Параметр ReFrames формата : 10 кадров
Режим смешивания : Header stripping
Идентификатор кодека : V_MPEG4/ISO/AVC
Продолжительность : 2 ч. 39 м.
Битрейт : 7000 Кбит/сек
Ширина : 1280 пикселей
Высота : 534 пикселя
Соотношение сторон : 2,40:1
Режим частоты кадров : Постоянный
Частота кадров : 23,976 кадра/сек
Цветовое пространство : YUV
Субдискретизация насыщенности : 4:2:0
Битовая глубина : 8 бит
Тип развёртки : Прогрессивная
Бит/(Пиксели*Кадры) : 0.427
Размер потока : 7,64 Гбайт (75%)
Заголовок : Большие гонки (1965)
Библиотека кодирования : x264 core 142 r2431 ac76440
Настройки программы : cabac=1 / ref=10 / deblock=1:-3:-3 / analyse=0x3:0x133 / me=umh / subme=10 / psy=1 / psy_rd=1.00:0.10 / mixed_ref=1 / me_range=48 / chroma_me=1 / trellis=2 / 8x8dct=1 / cqm=0 / deadzone=21,11 / fast_pskip=0 / chroma_qp_offset=-3 / threads=6 / lookahead_threads=1 / sliced_threads=0 / nr=0 / decimate=1 / interlaced=0 / bluray_compat=0 / constrained_intra=0 / bframes=5 / b_pyramid=2 / b_adapt=2 / b_bias=0 / direct=3 / weightb=1 / open_gop=0 / weightp=2 / keyint=240 / keyint_min=22 / scenecut=40 / intra_refresh=0 / rc_lookahead=40 / rc=2pass / mbtree=1 / bitrate=7000 / ratetol=1.0 / qcomp=0.60 / qpmin=10 / qpmax=51 / qpstep=4 / cplxblur=20.0 / qblur=0.5 / ip_ratio=1.40 / aq=1:1.00
Язык : English
Аудио #1
Идентификатор : 2
Формат : AC-3
Формат/Информация : Audio Coding 3
Расширение режима : CM (complete main)
Параметр Endianness формата : Big
Режим смешивания : Header stripping
Идентификатор кодека : A_AC3
Продолжительность : 2 ч. 39 м.
Вид битрейта : Постоянный
Битрейт : 192 Кбит/сек
Каналы : 2 канала
Расположение каналов : Front: L R
Частота : 48,0 КГц
Битовая глубина : 16 бит
Метод сжатия : С потерями
Размер потока : 220 Мбайт (2%)
Заголовок : AC3 (Дублированный)
Язык : Russian
Аудио #2
Идентификатор : 3
Формат : AC-3
Формат/Информация : Audio Coding 3
Расширение режима : CM (complete main)
Параметр Endianness формата : Big
Режим смешивания : Header stripping
Идентификатор кодека : A_AC3
Продолжительность : 2 ч. 39 м.
Вид битрейта : Постоянный
Битрейт : 384 Кбит/сек
Каналы : 6 каналов
Расположение каналов : Front: L C R, Side: L R, LFE
Частота : 48,0 КГц
Битовая глубина : 16 бит
Метод сжатия : С потерями
Размер потока : 439 Мбайт (4%)
Заголовок : AC3 (Многоголосный)
Язык : Russian
Аудио #3
Идентификатор : 4
Формат : DTS
Формат/Информация : Digital Theater Systems
Режим : 16
Параметр Endianness формата : Big
Режим смешивания : Header stripping
Идентификатор кодека : A_DTS
Продолжительность : 2 ч. 39 м.
Вид битрейта : Постоянный
Битрейт : 1509 Кбит/сек
Каналы : 6 каналов
Расположение каналов : Front: L C R, Side: L R, LFE
Частота : 48,0 КГц
Битовая глубина : 24 бит
Метод сжатия : С потерями
Размер потока : 1,69 Гбайт (17%)
Заголовок : DTS (Оригинал)
Язык : English
Текст #1
Идентификатор : 5
Формат : PGS
Режим смешивания : zlib
Идентификатор кодека : S_HDMV/PGS
Идентификатор кодека/Информация : The same subtitle format used on BDs/HD-DVDs
Заголовок : Русские
Язык : Russian
Текст #2
Идентификатор : 6
Формат : PGS
Режим смешивания : zlib
Идентификатор кодека : S_HDMV/PGS
Идентификатор кодека/Информация : The same subtitle format used on BDs/HD-DVDs
Заголовок : Английские
Язык : English

Дополнительно

Полное имя персонажа Тони Кертиса (Великий Лесли) было Лесли Галлант Третий.
Занимает 55-е место по посещаемости среди зарубежных фильмов в советском кинопрокате.
Во время путешествия с Аляски на Камчатку льдина попадает в туман, и Макс подаёт сигналы гудком автомобиля. Неожиданно он извлекает из гудка музыкальную тему из фильма «Вестсайдская история» (1961).
Фильм предваряет шестиминутная увертюра. Между сериями помещён трёхминутный музыкальный антракт. И увертюра, и антракт в советском прокате были вырезаны. Также в советском прокате из фильма были вырезаны две сцены: долгое путешествие на льдине с Аляски на Камчатку - для сокращения экранного времени, посещение путешественниками Тобольска - по идеологическим соображениям.
Несмотря на комедийный сюжет, фильм был инспирирован реальным событием - Большими гонками «Нью-Йорк - Париж» 1908 года.
-Скриншоты:
---
[Профиль] [ЛС]
Кто просматривает тему:

Форум Тема Автор Размер
Cборники 70х-80х-90х (Ретро) (Pop, Disco) VA - Самая Большая Дискотека 300 хитов - 2015, MP3, 320 kbps Magnat 2.66 GB
Rock (Rock) Пикник - Большая игра (3CD) - 2015 [FLAC, image +.cue, lossless] sergej644 1.19 GB
BBC BBC: Большое железнодорожное путешествие по континенту / Great Continental Railway Journeys [сезон 4 серии 1-6 из 6] (Dave Minchin) [2015 г., Документальный, история, путешествия, HDTVRip 720p] skorpionN 8.85 GB
BBC BBC: Преступники Британии. Разбойники с большой дороги, пираты и мошенники / Britain's Outlaws. Highwaymen, Pirates and Rogues [серии 1-3 из 3] (Andy Hall, Matthew Thomas, Gerry Dawson) [201... skorpionN 5.42 GB
History History: Большая история / Big History (Джеймс Грант Голдин / James Grant Goldin) [2013, Документально-постановочный, история, HDTVRip 720p] TorrentFilm 13.56 GB
Разное LuckyPatcher 4.4.6 - Патчер к большинству программ и игр (15.08.14) [Ru/Multi] sergej644 4 MB
Nat Geo Wild Nat Geo Wild: Жизнь на Большом Барьерном рифе / Life on the Reef [серии 1-3 из 3] (Карина Холден / Karina Holden) [2014 г., Документальный, научно-познавательный, HDRip-AVC 720p] skorpionN 3.14 GB
Nat Geo Wild Nat Geo Wild: Национальные парки Америки. Большой каньон / America's National Parks. Grand Canyon [сезон 1 серия 5](Henry M. Mix, Yann Sochaczewski) [2015 г., Документальный, природа, фл... skorpionN 1.53 GB
Показать сообщения:    

Текущее время: Сегодня 12:39

Часовой пояс: GMT



Вы не можете начинать темы
Вы не можете отвечать на сообщения
Вы не можете редактировать свои сообщения
Вы не можете удалять свои сообщения
Вы не можете голосовать в опросах
Вы не можете прикреплять файлы к сообщениям
Вы не можете скачивать файлы