Большая легенда / Big Legend (2018) WEBRip 720p | L2

 
Автор Сообщение

BOSS ®

Пол:

Стаж: 3 года 9 месяцев

Сообщений: 11205

Откуда: ODESSA



Награды: 22 (Подробнее)

Mega Releaser 2 (Количество: 1) Mega Seeder 5 (Количество: 1) Top Keeper 4 (Количество: 1)
Торрент-статистика

Создавать темы 10-Июл-2018 18:35

[Цитировать]

Информация о фильме
Название: Большая легенда
Оригинальное название: Big Legend
Год выхода: 2018
Жанр: Боевик, триллер
Режиссер: Джастин Ли
В ролях: Кевин Макли, Тодд Робинсон, Аманда Уайсс, Лето Спиро, Эшли Платц, Эдриенн Барбо, Лэнс Хенриксен и другие
О фильме:
Тайлер отправляется в тихоокеанские северо-западные густые леса после того, как его невеста неожиданно пропала, отправившись туда на экспедицию. Там он встречает охотника, который решает помочь парню. Идя по стопам учёных, на которых они вышли, герои никак не ожидают, что легенды о Бигфуте окажутся правдивыми.

Страна: США, Papa Octopus Productions, Fresh Cats Productions
Продолжительность: 01:29:45
Перевод: Любительский (двухголосый закадровый) | HiWay Grope
Файл
Кодек: MPEG-4 AVC/x.264
Качество: WEBRip 720p
Видео: 1280x544, 23.976 fps, ~2924 kbps, 0.175 bit/pixel
Звук:
Аудио rus: AC3, 48 kHz, 6 ch, 384 Kbps
Субтитры: отсутствуют
Реклама: присутствует
Семпл

MediaInfo:

General
Unique ID : 51617126922362669115257385337156536730 (0x26D518D7808B542CE68D735B6BA8099A)
Complete name : D:Big.Legend.2018.720p.WEBRip.HiWayGropeBig.Legend.2018.720p.WEBRip.HiWayGrope.mkv
Format : Matroska
Format version : Version 4 / Version 2
File size : 2.12 GiB
Duration : 1 h 29 min
Overall bit rate : 3 375 kb/s
Encoded date : UTC 2018-07-10 09:38:40
Writing application : mkvmerge v21.0.0 ('Tardigrades Will Inherit The Earth') 64-bit
Writing library : libebml v1.3.5 + libmatroska v1.4.8
Video
ID : 1
Format : AVC
Format/Info : Advanced Video Codec
Format profile : Main@L4.1
Format settings : CABAC / 4 Ref Frames
Format settings, CABAC : Yes
Format settings, ReFrames : 4 frames
Codec ID : V_MPEG4/ISO/AVC
Duration : 1 h 29 min
Bit rate : 2 924 kb/s
Width : 1 280 pixels
Height : 544 pixels
Display aspect ratio : 2.35:1
Frame rate mode : Constant
Frame rate : 23.976 (24000/1001) FPS
Standard : NTSC
Color space : YUV
Chroma subsampling : 4:2:0
Bit depth : 8 bits
Scan type : Progressive
Bits/(Pixel*Frame) : 0.175
Stream size : 1.83 GiB (87%)
Language : English
Default : Yes
Forced : No
Color range : Limited
Color primaries : BT.601 NTSC
Transfer characteristics : BT.601
Matrix coefficients : BT.601
Audio
ID : 2
Format : AC-3
Format/Info : Audio Coding 3
Codec ID : A_AC3
Duration : 1 h 29 min
Bit rate mode : Constant
Bit rate : 384 kb/s
Channel(s) : 6 channels
Channel positions : Front: L C R, Side: L R, LFE
Sampling rate : 48.0 kHz
Frame rate : 31.250 FPS (1536 SPF)
Bit depth : 16 bits
Compression mode : Lossy
Stream size : 247 MiB (11%)
Language : Russian
Service kind : Complete Main
Default : Yes
Forced : No

Скриншоты

Релиз от: HiWay Grope
[Профиль] [ЛС]
Кто просматривает тему:

Форум Тема Автор Размер
Cборники 70х-80х-90х (Ретро) (Pop, Disco) VA - Самая Большая Дискотека 300 хитов - 2015, MP3, 320 kbps Magnat 2.66 GB
Rock (Rock) Пикник - Большая игра (3CD) - 2015 [FLAC, image +.cue, lossless] sergej644 1.19 GB
BBC BBC: Большое железнодорожное путешествие по континенту / Great Continental Railway Journeys [сезон 4 серии 1-6 из 6] (Dave Minchin) [2015 г., Документальный, история, путешествия, HDTVRip 720p] skorpionN 8.85 GB
BBC BBC: Преступники Британии. Разбойники с большой дороги, пираты и мошенники / Britain's Outlaws. Highwaymen, Pirates and Rogues [серии 1-3 из 3] (Andy Hall, Matthew Thomas, Gerry Dawson) [201... skorpionN 5.42 GB
Доисторический мир BBC: Прогулки с динозаврами: Баллада о большом Але (спецвыпуск) / Walking With Dinosaurs: The Ballad Of Big Al [серии 1-2 из 2] (Кейт Бартлетт, Майкл Олмерт) [2000 г., Документальный, и... skorpionN 1.97 GB
Discovery Discovery. Большая нефть Ирака / Mega oil Iraq [серии 1-4 из 4] (Дэвид Херман) [2015 г., Документальный, познавательный, HDTVRip 720p] ZeNArD 1.85 GB
History History: Большая история / Big History (Джеймс Грант Голдин / James Grant Goldin) [2013, Документально-постановочный, история, HDTVRip 720p] TorrentFilm 13.56 GB
Разное LuckyPatcher 4.4.6 - Патчер к большинству программ и игр (15.08.14) [Ru/Multi] sergej644 4 MB
Показать сообщения:    

Текущее время: Сегодня 20:17

Часовой пояс: GMT



Вы не можете начинать темы
Вы не можете отвечать на сообщения
Вы не можете редактировать свои сообщения
Вы не можете удалять свои сообщения
Вы не можете голосовать в опросах
Вы не можете прикреплять файлы к сообщениям
Вы не можете скачивать файлы