Большая игра / Big Game (2014) WEBRip [звук с TS]

 
Автор Сообщение

достали все ®

Пол:

Стаж: 1 год 8 месяцев

Сообщений: 6577



Награды: 12 (Подробнее)

Mega Releaser 3 (Количество: 1) Mega Releaser 1 (Количество: 1) Mega Seeder 5 (Количество: 1)
Торрент-статистика

Создавать темы 29-Май-2015 10:41

[Цитировать]

-Большая игра / Big Game (2014) WEBRip- Производство: Финляндия, Великобритания, Германия, Subzero Film Entertainment, Altitude Film Entertainment, Egoli Tossell Film
Жанр: Боевик, Приключения
Режиссер: Ялмари Хеландер
Продюсер: Уилл Кларк, Петри Йокиранта, Энди Мэйсон
Актеры: Сэмюэл Л. Джексон, Онни Томмила, Рэй Стивенсон, Виктор Гарбер, Мехмет Куртулус, Тед Левайн
Описание:
История робкого подростка по имени Оскари. Как и его прадеды, согласно традициям, мальчик должен провести один день и одну ночь в непроходимой глуши. Вооружённый только луком и стрелами, он должен вернуться с добычей, которая ознаменует его становление как мужчины. Кто бы мог подумать, что такой добычей станет президент США! Вот так судьба одного из самых влиятельных людей во всем мире оказывается в руках подростка. Вовлеченные в смертельно опасную, но от этого не менее смешную игру в «кошки-мышки», имея всего несколько часов форы — Оскари и Президент США должны сплотиться, чтобы пережить самую необычную ночь в своей жизни.
[url=http://sendfile.su/1122774]
Дата мировой премьеры: 5 сентября 2014
Дата премьеры в РФ: 16 апреля 2015, «Люксор»
Продолжительность: 01:26:40
Качество видео: WEBRip
Перевод: Дублированный (звук с TS)
Субтитры: Отсутствуют
Видеокодек: Xvid
Битрейт видео: ~1868 kbps
Размер кадра: 720x304
Аудиокодек: AC3, 2 ch
Битрейт аудио: 384 Кбит/с

MediaInfo:

Общее
Полное имя                               : Big.Game.2014.Dt.WEBRip.avi
Формат                                   : AVI
Формат/Информация                        : Audio Video Interleave
Размер файла                             : 1,37 Гбайт
Продолжительность                        : 1 ч. 26 м.
Общий поток                              : 2261 Кбит/сек
Видео
Идентификатор                            : 0
Формат                                   : MPEG-4 Visual
Профиль формата                          : Advanced Simple@L5
Параметр BVOP формата                    : 2
Параметр QPel формата                    : Нет
Параметр GMC формата                     : Без точки перехода
Параметр матрицы формата                 : Default (MPEG)
Идентификатор кодека                     : XVID
Идентификатор кодека/Подсказка           : XviD
Продолжительность                        : 1 ч. 26 м.
Битрейт                                  : 1868 Кбит/сек
Ширина                                   : 720 пикселей
Высота                                   : 304 пикселя
Соотношение сторон                       : 2,35:1
Частота кадров                           : 23,976 кадра/сек
Цветовое пространство                    : YUV
Субдискретизация насыщенности            : 4:2:0
Битовая глубина                          : 8 бит
Тип развёртки                            : Прогрессивная
Метод сжатия                             : С потерями
Бит/(Пиксели*Кадры)                      : 0.356
Размер потока                            : 1,13 Гбайт (83%)
Библиотека кодирования                   : XviD 73
Аудио
Идентификатор                            : 1
Формат                                   : AC-3
Формат/Информация                        : Audio Coding 3
Расширение режима                        : CM (complete main)
Параметр Endianness формата              : Big
Идентификатор кодека                     : 2000
Продолжительность                        : 1 ч. 26 м.
Вид битрейта                             : Постоянный
Битрейт                                  : 384 Кбит/сек
Каналы                                   : 2 канала
Расположение каналов                     : Front: L R
Частота                                  : 48,0 КГц
Битовая глубина                          : 16 бит
Метод сжатия                             : С потерями
Размер потока                            : 238 Мбайт (17%)
Выравнивание                             : Разделение по промежуткам
Продолжительность промежутка             : 42  мс. (1,00 видеокадр)
Время предзагрузки промежутка            : 500  мс.
Скриншоты:
[Профиль] [ЛС]
Кто просматривает тему:

Форум Тема Автор Размер
Cборники 70х-80х-90х (Ретро) (Pop, Disco) VA - Самая Большая Дискотека 300 хитов - 2015, MP3, 320 kbps Magnat 2.66 GB
Rock (Rock) Пикник - Большая игра (3CD) - 2015 [FLAC, image +.cue, lossless] sergej644 1.19 GB
BBC BBC: Большое железнодорожное путешествие по континенту / Great Continental Railway Journeys [сезон 4 серии 1-6 из 6] (Dave Minchin) [2015 г., Документальный, история, путешествия, HDTVRip 720p] skorpionN 8.85 GB
BBC BBC: Преступники Британии. Разбойники с большой дороги, пираты и мошенники / Britain's Outlaws. Highwaymen, Pirates and Rogues [серии 1-3 из 3] (Andy Hall, Matthew Thomas, Gerry Dawson) [201... skorpionN 5.42 GB
History History: Большая история / Big History (Джеймс Грант Голдин / James Grant Goldin) [2013, Документально-постановочный, история, HDTVRip 720p] TorrentFilm 13.56 GB
Разное LuckyPatcher 4.4.6 - Патчер к большинству программ и игр (15.08.14) [Ru/Multi] sergej644 4 MB
Nat Geo Wild Nat Geo Wild: Жизнь на Большом Барьерном рифе / Life on the Reef [серии 1-3 из 3] (Карина Холден / Karina Holden) [2014 г., Документальный, научно-познавательный, HDRip-AVC 720p] skorpionN 3.14 GB
Nat Geo Wild Nat Geo Wild: Национальные парки Америки. Большой каньон / America's National Parks. Grand Canyon [сезон 1 серия 5](Henry M. Mix, Yann Sochaczewski) [2015 г., Документальный, природа, фл... skorpionN 1.53 GB
Показать сообщения:    

Текущее время: Сегодня 06:15

Часовой пояс: GMT



Вы не можете начинать темы
Вы не можете отвечать на сообщения
Вы не можете редактировать свои сообщения
Вы не можете удалять свои сообщения
Вы не можете голосовать в опросах
Вы не можете прикреплять файлы к сообщениям
Вы не можете скачивать файлы