Большая игра / State of Play (2009) BDRip 720p от NNNB

 
Автор Сообщение

sergej644 ®

Пол:

Стаж: 4 года 11 месяцев

Сообщений: 6046

Откуда: Soviet Union



Награды: Нет

Торрент-статистика

Создавать темы 05-Ноя-2014 16:10

[Цитировать]

Большая игра / State of Play
«Find The Truth»
Год выпуска: 2009
Жанр: драма, детектив
Выпущено: США, Великобритания, Франция
Режиссер: Кевин МакДональд / Kevin Macdonald
В ролях: Рассел Кроу , Бен Аффлек , Рэйчел МакАдамс , Хелен Миррен , Робин Райт , Джейсон Бейтман , Джефф Дэниелс , Майкл Беррессе , Гарри Дж. Ленникс , Джош Мостел , Майкл Уэстон , Бэрри Шебака Хенли
Перевод: Дублированный
Сюжет фильма:
Американский журналист Маккэффри расследует серию жестоких убийств. Одной из жертв становится любовница преуспевающего конгрессмена Коллинза, давнего друга Маккэффри. Улики открывают перед журналистом цепочку чудовищных заговоров, ведущих в высшие политические круги страны. Люди, с которыми ему придется иметь дело, ворочают миллиардами долларов и не привыкли, когда в их дела вмешиваются посторонние.

Качество: BDRip 720p (исходник Blu-ray)
Формат: AVC (библиотека кодирования x.264)
Контейнер (Расширение): MKV
Видео: 1280x544 (2.35:1), 3902 Кбит/сек, 23,976 кадр/сек, 0,234 Бит/[Пиксели*Кадры]
Аудио №1: русский AC3 / 5.1 / 48 kHz / 384 kbps / 16 bit - Дублированный
Аудио №2: английский / AC3 / 5.1 / 48 kHz / 640 kbps / 16 bit
Субтитры: Русские (полные), Русские (только надписи), английские (полные)
Продолжительность: 02:07:01Автор рипа: Сообщество:

MediaInfo

Format : Matroska
Format version : Version 2
File size : 4.37 GiB
Duration : 2h 7mn
Overall bit rate : 4 924 Kbps
Movie name : Bol'shaja igra.(2009).BDRip.720p.[denis100]
Encoded date : UTC 2014-11-05 07:50:19
Writing application : mkvmerge v5.8.0 ('No Sleep / Pillow') built on Sep 2 2012 15:37:04
Writing library : libebml v1.2.3 + libmatroska v1.3.0
Video
ID : 1
Format : AVC
Format/Info : Advanced Video Codec
Format profile : High@L4.1
Format settings, CABAC : Yes
Format settings, ReFrames : 11 frames
Codec ID : V_MPEG4/ISO/AVC
Duration : 2h 7mn
Bit rate : 3 902 Kbps
Width : 1 280 pixels
Height : 544 pixels
Display aspect ratio : 2.35:1
Frame rate : 23.976 fps
Color space : YUV
Chroma subsampling : 4:2:0
Bit depth : 8 bits
Scan type : Progressive
Bits/(Pixel*Frame) : 0.234
Stream size : 3.37 GiB (77%)
Title : Bol'shaja igra.(2009).BDRip.720p.[denis100]
Writing library : x264 core 142 r2479 dd79a61
Encoding settings : cabac=1 / ref=11 / deblock=1:-3:-3 / analyse=0x3:0x133 / me=umh / subme=11 / psy=1 / psy_rd=1.00:0.10 / mixed_ref=1 / me_range=32 / chroma_me=1 / trellis=2 / 8x8dct=1 / cqm=0 / deadzone=21,11 / fast_pskip=0 / chroma_qp_offset=-3 / threads=6 / lookahead_threads=1 / sliced_threads=0 / nr=0 / decimate=1 / interlaced=0 / bluray_compat=0 / constrained_intra=0 / bframes=6 / b_pyramid=2 / b_adapt=2 / b_bias=0 / direct=3 / weightb=1 / open_gop=0 / weightp=2 / keyint=240 / keyint_min=23 / scenecut=40 / intra_refresh=0 / rc=2pass / mbtree=0 / bitrate=3902 / ratetol=1.0 / qcomp=0.60 / qpmin=0 / qpmax=69 / qpstep=4 / cplxblur=20.0 / qblur=0.5 / ip_ratio=1.40 / pb_ratio=1.30 / aq=1:0.90
Language : English
Default : Yes
Forced : No
Audio #1
ID : 2
Format : AC-3
Format/Info : Audio Coding 3
Mode extension : CM (complete main)
Codec ID : A_AC3
Duration : 2h 7mn
Bit rate mode : Constant
Bit rate : 384 Kbps
Channel(s) : 6 channels
Channel positions : Front: L C R, Side: L R, LFE
Sampling rate : 48.0 KHz
Bit depth : 16 bits
Compression mode : Lossy
Stream size : 349 MiB (8%)
Title : Дублированный
Default : Yes
Forced : No
Audio #2
ID : 3
Format : AC-3
Format/Info : Audio Coding 3
Mode extension : CM (complete main)
Codec ID : A_AC3
Duration : 2h 7mn
Bit rate mode : Constant
Bit rate : 640 Kbps
Channel(s) : 6 channels
Channel positions : Front: L C R, Side: L R, LFE
Sampling rate : 48.0 KHz
Bit depth : 16 bits
Compression mode : Lossy
Stream size : 582 MiB (13%)
Title : english
Language : English
Default : No
Forced : No
Text #1
ID : 4
Format : UTF-8
Codec ID : S_TEXT/UTF8
Codec ID/Info : UTF-8 Plain Text
Title : Русские (полные)
Language : Russian
Default : No
Forced : No
Text #2
ID : 5
Format : UTF-8
Codec ID : S_TEXT/UTF8
Codec ID/Info : UTF-8 Plain Text
Title : Русские (только надписи)
Language : Russian
Default : No
Forced : No
Text #3
ID : 6
Format : UTF-8
Codec ID : S_TEXT/UTF8
Codec ID/Info : UTF-8 Plain Text
Title : английские (полные)
Language : English
Default : No
Forced : No

x264

x264 [info]: frame I:1561 Avg QP:13.30 size:107803
x264 [info]: frame P:41560 Avg QP:15.59 size: 37751
x264 [info]: frame B:139613 Avg QP:17.70 size: 14153

Скриншоты

[Профиль] [ЛС]
Кто просматривает тему:

Форум Тема Автор Размер
Cборники 70х-80х-90х (Ретро) (Pop, Disco) VA - Самая Большая Дискотека 300 хитов - 2015, MP3, 320 kbps Magnat 2.66 GB
Rock (Rock) Пикник - Большая игра (3CD) - 2015 [FLAC, image +.cue, lossless] sergej644 1.19 GB
BBC BBC: Большое железнодорожное путешествие по континенту / Great Continental Railway Journeys [сезон 4 серии 1-6 из 6] (Dave Minchin) [2015 г., Документальный, история, путешествия, HDTVRip 720p] skorpionN 8.85 GB
BBC BBC: Преступники Британии. Разбойники с большой дороги, пираты и мошенники / Britain's Outlaws. Highwaymen, Pirates and Rogues [серии 1-3 из 3] (Andy Hall, Matthew Thomas, Gerry Dawson) [201... skorpionN 5.42 GB
History History: Большая история / Big History (Джеймс Грант Голдин / James Grant Goldin) [2013, Документально-постановочный, история, HDTVRip 720p] TorrentFilm 13.56 GB
Разное LuckyPatcher 4.4.6 - Патчер к большинству программ и игр (15.08.14) [Ru/Multi] sergej644 4 MB
Nat Geo Wild Nat Geo Wild: Жизнь на Большом Барьерном рифе / Life on the Reef [серии 1-3 из 3] (Карина Холден / Karina Holden) [2014 г., Документальный, научно-познавательный, HDRip-AVC 720p] skorpionN 3.14 GB
Nat Geo Wild Nat Geo Wild: Национальные парки Америки. Большой каньон / America's National Parks. Grand Canyon [сезон 1 серия 5](Henry M. Mix, Yann Sochaczewski) [2015 г., Документальный, природа, фл... skorpionN 1.53 GB
Показать сообщения:    

Текущее время: Сегодня 13:04

Часовой пояс: GMT



Вы не можете начинать темы
Вы не можете отвечать на сообщения
Вы не можете редактировать свои сообщения
Вы не можете удалять свои сообщения
Вы не можете голосовать в опросах
Вы не можете прикреплять файлы к сообщениям
Вы не можете скачивать файлы