Болезнь любви / Больная любовь / Любовь от которой больно / Legaturi bolnavicioase / Love Sick / La Perversion (Тудор Джурджу / Tudor Giurgiu) [2006, Франция, Румыния, мелодрама, лесби-тема, экранизация, DVB-AVC] DVO (Kino Polska)

 
Автор Сообщение

TorrentFilm ®

Пол:

Стаж: 2 года

Сообщений: 7741



Награды: Нет

Торрент-статистика

Создавать темы 07-Июл-2015 00:10

[Цитировать]

Болезнь любви
Legături bolnăvicioase- Страна: Франция, Румыния
Жанр: мелодрама, лесби-тема, экранизация
Год выпуска: 2006
Продолжительность: 01:23:51Перевод: Профессиональный (двухголосый закадровый) по заказу Kino Polska на производственно-технической базе Студии "Акцент"
Cубтитры: нет
Режиссер: Тудор Джурджу / Tudor Giurgiu
В ролях: Мария Пописташу / Maria Popistașu (Kiki), Иоана Барбу / Ioana Barbu (Alex), Тудор Кирилэ / Tudor Chirilă (Sandu), Кэтэлина Мурджа / Cătălina Murgea (Mrs. Benes)
Описание: По одноимённому роману Чечилии Штефэнеску / Cecilia Ștefănescu (2002).
Алекс переезжает из общежития на съёмную квартиру. Её соседкой по дому оказывается Кики, с которой они вместе учатся в Бухарестком университете. Их отношения быстро развиваются от дружбы до трогательной заботы и нежности. Почти всё время они проводят вместе. Единственное, чем озабочена Кики, - это отношениями со своим братом Санду, с которым её связывает не только родство, но и запретная любовь...-Тудор Джурджу родился в 1972 году в городе Клуж-Напока, Румыния. В 2005-2007 годах был президентом Румынского телевизионного общества. Снял несколько музыкальных клипов, а также документальных и короткометражных фильмов. Его дебютный полнометражный фильм "Болезнь любви" (2006) стал кассовым хитом в Румынии. В 2012 году Джурджу получил премию Европейской киноакадемии за лучший короткометражный фильм "Супермен, Человек-паук или Бэтмен". Тудор Джурджу является владельцем независимой кинокомпании Libra Film, а также основателем и президентом Трансильванского МКФ.-Доп. информация: Filmbox Arthouse IPTV. На территории РФ возрастное ограничение 18+.
Награды: 2 награды Gopos Awards, Romania 2007 (лучшая актриса второго плана - Catalina Murgea, приз зрительских симпатий) + 9 номинаций. Участник секции "Панорама" Berlin International Film Festival 2006.

Качество видео: DVB-AVC
Формат видео: MKV
Видео: AVC (H.264), 720x576@1024x576 (16:9), 25 fps, ~827 kbps avg, 0.088 bit/pixel
Аудио: MPEG Audio 2, 2 ch, 48 kHz, ~128.00 kbps avg

MediaInfo

ОбщееУникальный идентификатор : 223109480192354178323851347867788396681 (0xA7D952A8207B1FBFB95AE851A83C4889)Полное имя : F:\My Torrents 3\[apreder]Legaturi_bolnavicioase(2006)DVB.mkvФормат : MatroskaВерсия формата : Version 2Размер файла : 584 МбайтПродолжительность : 1 ч. 23 м.Общий поток : 974 Кбит/секДата кодирования : UTC 2015-07-05 10:45:17Программа кодирования : mkvmerge v8.1.0 ('Psychedelic Postcard') 64bitБиблиотека кодирования : libebml v1.3.1 + libmatroska v1.4.2Attachements : cover.jpg / cover_small.jpg
ВидеоИдентификатор : 2Формат : AVCФормат/Информация : Advanced Video CodecПрофиль формата : Main@L3Параметр CABAC формата : ДаПараметр ReFrames формата : 3 кадраИдентификатор кодека : V_MPEG4/ISO/AVCПродолжительность : 1 ч. 23 м.Битрейт : 827 Кбит/секШирина : 720 пикселейВысота : 576 пикселейСоотношение сторон : 16:9Соотношение сторон в оригинале : 16:9Режим частоты кадров : ПостоянныйЧастота кадров : 22,745 кадра/секЧастота кадров в оригинале : 25,000 кадров/секСтандарт вещания : ComponentЦветовое пространство : YUVСубдискретизация насыщенности : 4:2:0Битовая глубина : 8 битТип развёртки : ЧересстрочнаяПорядок развёртки : Верхнее поле первоеБит/(Пиксели*Кадры) : 0.088Размер потока : 496 Мбайт (85%)Default : ДаForced : Нетcolour_range : LimitedОсновные цвета : BT.601 PALХарактеристики трансфера : BT.470 System B, BT.470 System GКоэффициенты матрицы : BT.601
АудиоИдентификатор : 1Формат : MPEG AudioВерсия формата : Version 1Профиль формата : Layer 2Идентификатор кодека : A_MPEG/L2Идентификатор кодека/Подсказка : MP2Продолжительность : 1 ч. 23 м.Вид битрейта : ПостоянныйБитрейт : 128 Кбит/секКаналы : 2 каналаЧастота : 48,0 КГцМетод сжатия : С потерямиЗадержка видео : -5 мс.Размер потока : 76,8 Мбайт (13%)Язык : RussianDefault : ДаForced : Нет

Скриншот c названием фильма

Скриншоты


Резервные скриншоты


-[2'432]
[Профиль] [ЛС]

Создавать темы 06-Авг-2015 22:25 (спустя 30 дней)

Топик был перенесен из форума Фильмы до 2014 года в форум Фильмы до 2012 года
sergej644
 
Кто просматривает тему:

Форум Тема Автор Размер
Фильмы 2014 года F 63.9 Болезнь любви (2014) WEB-DLRip BOSS 1.36 GB
Viasat History Viasat History: Как болезни монархов изменили историю / Fit to Rule: How Royal Illness Changed History [серии 1-3 из 3] (Paul Berczeller, Eleanor Scoones, Nick Gillam-Smith) [2013 г., Документальный,... skorpionN 2.55 GB
Разная литература Елена Первушина - Инфекционные болезни. Меры профилактики и лечения (2015) PDF достали все 10 MB
Научная и техническая литература Коваль Дмитрий - Большая энциклопедия целительных точек от 1000 болезней (2016) PDF, FB2 достали все 7 MB
Фильмы (HD Rips | 720p, 1080p) Любовь от всех болезней / Supercondriaque (2014) BDRip 720p | Лицензия sergej644 5.27 GB
Фильмы 2014 года Любовь от всех болезней / Supercondriaque (Дани Бун / Dany Boon) [2014, Франция, Комедия, приключения, драма, мелодрама, BDRip] Dub (Вольга) + Original Fre TorrentFilm 2.05 GB
Фильмы 2014 года Любовь от всех болезней / Supercondriaque (Дэни Бун / Dany Boon) [2014, Франция, комедия, HDRip] Dub TorrentFilm 747 MB
Фильмы 2014 года Любовь от всех болезней / Supercondriaque (Дэни Бун) [2014 г., комедия, HDRip] BOSS 1.37 GB
Показать сообщения:    

Текущее время: Сегодня 20:11

Часовой пояс: GMT



Вы не можете начинать темы
Вы не можете отвечать на сообщения
Вы не можете редактировать свои сообщения
Вы не можете удалять свои сообщения
Вы не можете голосовать в опросах
Вы не можете прикреплять файлы к сообщениям
Вы не можете скачивать файлы