Бокс. Александр Поветкин – Карлос Такам / Alexander Povetkin vs Carlos Takam & undercard (2014.10.24) HDTVRip [H.264/720p] [hand made 50fps]

 
Автор Сообщение

sergej644 ®

Пол:

Стаж: 4 года 11 месяцев

Сообщений: 6041

Откуда: Soviet Union



Награды: Нет

Торрент-статистика

Создавать темы 25-Окт-2014 10:26

[Цитировать]

- Бокс. Александр Поветкин – Карлос Такам / Alexander Povetkin vs Carlos Takam & undercard (2014.10.24) HDTVRip [H.264/720p] [hand made 50fps] - Режиссер / Телекомпания: СПОРТ 1
Русское название: Бокс. Александр Поветкин – Карлос Такам
Оригинальное название: Alexander Povetkin vs Carlos Takam & undercard
Год выпуска: 2014
Жанр: Спорт, бокс
Выпущено: Россия, Спорт 1
Комментаторы: Борис Скрипко, Дмитрий Губерниев, Андрей Шкаликов, Вячеслав Яновский
Описание:
Бокс. Александр Поветкин – Карлос Такам. 24 октября 2014г. 34-летний Поветкин провел на профессиональном ринге 28 боев, в которых одержал 26 побед (19 - нокаутом) и потерпел одно поражение - от Владимира Кличко. На счету 33-летнего Такама 32 боя (30 побед, из которых 23 - нокаутом, одно поражение и одна ничья). Свой последний бой Поветкин провел 30 мая, победив немца Мануэля Чарра техническим нокаутом в седьмом раунде. Поветкин в том бою завоевал вакантный титул Интерконтинентального чемпиона по версии WBC. Такам неожиданно для многих победил Тони Томпсона. В предварительных поединках встретятся Рахим Чахкиев и Джакоббе Фригомени и т.д.
Продолжительность: 01:06:19
Видеокодек: AVC
Битрейт видео: ~4050 Кбит/сек
Размер кадра: 1280 x 720
Качество видео: HDTVRip
Аудиокодек: AC-3, 2ch.
Битрейт аудио: 192 Кбит/сек

MediaInfo:

Формат : Matroska
Версия формата : Version 4 / Version 2
Размер файла : 1,95 Гбайт
Продолжительность : 1 ч. 6 м.
Общий поток : 4202 Кбит/сек
Дата кодирования : UTC 2014-10-24 20:04:09
Программа кодирования : mkvmerge v7.0.0 ('Where We Going') 64bit built on Jun 9 2014 15:16:27
Библиотека кодирования : libebml v1.3.0 + libmatroska v1.4.1
DURATION : 01:06:19.104000000
NUMBER_OF_FRAMES : 124347
NUMBER_OF_BYTES : 95498496
_STATISTICS_WRITING_APP : mkvmerge v7.0.0 ('Where We Going') 64bit built on Jun 9 2014 15:16:27
_STATISTICS_WRITING_DATE_UTC : 2014-10-24 20:04:09
_STATISTICS_TAGS : BPS DURATION NUMBER_OF_FRAMES NUMBER_OF_BYTES
Видео
Идентификатор : 1
Формат : AVC
Формат/Информация : Advanced Video Codec
Профиль формата : [url=mailto:High@L4.1]High@L4.1[/url]
Параметр CABAC формата : Да
Параметр ReFrames формата : 4 кадра
Идентификатор кодека : V_MPEG4/ISO/AVC
Продолжительность : 1 ч. 6 м.
Битрейт : 3927 Кбит/сек
Ширина : 1280 пикселей
Высота : 720 пикселей
Соотношение сторон : 16:9
Частота кадров : 50,000 кадров/сек
Цветовое пространство : YUV
Субдискретизация насыщенности : 4:2:0
Битовая глубина : 8 бит
Тип развёртки : Прогрессивная
Бит/(Пиксели*Кадры) : 0.085
Размер потока : 1,82 Гбайт (93%)
Язык : English
Default : Да
Forced : Нет
Основные цвета : BT.709-5, BT.1361, IEC 61966-2-4, SMPTE RP177
Характеристики трансфера : BT.709-5, BT.1361
Коэффициенты матрицы : BT.709-5, BT.1361, IEC 61966-2-4 709, SMPTE RP177
Аудио
Идентификатор : 2
Формат : AC-3
Формат/Информация : Audio Coding 3
Расширение режима : CM (complete main)
Идентификатор кодека : A_AC3
Продолжительность : 1 ч. 6 м.
Вид битрейта : Постоянный
Битрейт : 192 Кбит/сек
Каналы : 2 канала
Расположение каналов : Front: L R
Частота : 48,0 КГц
Битовая глубина : 16 бит
Метод сжатия : С потерями
Задержка видео : 28 мс.
Размер потока : 91,1 Мбайт (5%)
Язык : Russian
Default : Да
Forced : Нет
-

Скриншоты

Время раздачи: 24/7. До первых 5 скачавших.
Rip by Striker
[Профиль] [ЛС]
Кто просматривает тему:

Форум Тема Автор Размер
XXXI Летние Олимпийские игры. Рио-де-Жанейро 2016 (Бразилия) XXXI Летние Олимпийские игры в Рио. Бокс. Мужчины.[52, 64, Свыше 91 кг] Женщины [75, 60 кг] (2016) SATRip достали все 2.09 GB
XXXI Летние Олимпийские игры. Рио-де-Жанейро 2016 (Бразилия) XXXI Летние Олимпийские Игры. Рио-де-Жанейро (Бразилия). Бокс. Мужчины до 49, 69, 75, 91 кг. Предварительные бои [08.08] (2016) IPTVRip-AVC Russian Mafia 5.44 GB
XXXI Летние Олимпийские игры. Рио-де-Жанейро 2016 (Бразилия) XXXI Летние Олимпийские Игры. Рио-де-Жанейро (Бразилия). Бокс. Мужчины до 91 кг. Финал [15.08] (2016) IPTV 1080i ODESSA 1.18 GB
Бокс, Бои без правил, К1 Бокс. Александр Поветкин - Майк Перес [22.05] (2015) HDTVRip 720p | 60 fps BOSS 1.31 GB
Бокс, Бои без правил, К1 Бокс. Бой за звание чемпиона мира. Владимир Кличко — Кубрат Пулев (2014) SATRip Белочка 768 MB
Бокс, Бои без правил, К1 Бокс. Бой за титулы IBF и IBO. Эдуард Трояновский (Россия) - Кейта Обара (Япония) + Андеркарт [09.09] (2016) IPTVRip достали все 1.6 GB
Бокс, Бои без правил, К1 Бокс. Бой за титулы WBA, IBF и WBO в полутяжёлом весе. Сергей Ковалев - Андре Уорд [19.11] (2016) HDTV 1080i достали все 4.72 GB
Бокс, Бои без правил, К1 Бокс. Василий Ломаченко - Николас Уолтерс + Андеркарт [26.11] (2016) IPTVRip достали все 2.42 GB
Показать сообщения:    

Текущее время: Сегодня 12:52

Часовой пояс: GMT



Вы не можете начинать темы
Вы не можете отвечать на сообщения
Вы не можете редактировать свои сообщения
Вы не можете удалять свои сообщения
Вы не можете голосовать в опросах
Вы не можете прикреплять файлы к сообщениям
Вы не можете скачивать файлы