Бойцовский клуб для леопарда / Leopard Fight Club (Ян Лампен / Jan Lampen) [2013, Документальный, HDTVRip-AVC]

 
Автор Сообщение

reversefile ®

Пол:

Стаж: 4 года 5 месяцев

Сообщений: 842

Откуда: ReverseFile.org



Награды: Нет

Торрент-статистика

Создавать темы 25-Июл-2014 01:09

[Цитировать]

Бойцовский клуб для леопарда
Leopard Fight Club
- Год выпуска: 2013
Страна: США
Жанр: Документальный
Продолжительность: 00:43:40
Перевод: Профессиональный (дублированный) | Михаил Тихонов / АРК·ТВ
Русские субтитры: нет-Режиссер: Ян Лампен / Jan Lampen
Описание: Перед вами удивительная история леопарда, за четыре года превратившегося из котёнка в гордое и сильное животное. История увидена глазами бабуина, охраняющего стаю.-Автор рипа: Leo.pard
Исходник:HDTV 1080i-Kачество: HDTVRip-AVC
Формат: MKV
Видео: x264, 880x496 (16:9), 1856 Kbps, 25 fps
Аудио: AC3, 384 Kbps, 48 KHz, 6 channels
Сэмпл: http://multi-up.com/969975

MediaInfo

General
Unique ID : 206633104095695337898299924099273382302 (0x9B741698BA9ACD208A2AE08A812CD99E)
Complete name : D:\Bojcovskij.klub.dlja.leoparda.2013.HDTVRip-AVC.mkv
Format : Matroska
Format version : Version 2
File size : 700 MiB
Duration : 43mn 40s
Overall bit rate : 2 241 Kbps
Encoded date : UTC 2014-04-27 01:22:08
Writing application : mkvmerge v6.1.0 ('Old Devil') built on Mar 4 2013 09:10:42
Writing library : libebml v1.3.0 + libmatroska v1.4.0
Video
ID : 1
Format : AVC
Format/Info : Advanced Video Codec
Format profile : High@L4.1
Format settings, CABAC : Yes
Format settings, ReFrames : 12 frames
Codec ID : V_MPEG4/ISO/AVC
Duration : 43mn 40s
Bit rate : 1 856 Kbps
Width : 880 pixels
Height : 496 pixels
Display aspect ratio : 16:9
Frame rate : 25.000 fps
Color space : YUV
Chroma subsampling : 4:2:0
Bit depth : 8 bits
Scan type : Progressive
Bits/(Pixel*Frame) : 0.170
Stream size : 566 MiB (81%)
Writing library : x264 core 138 r2358 9e941d1
Encoding settings : cabac=1 / ref=12 / deblock=1:-2:-1 / analyse=0x3:0x113 / me=umh / subme=10 / psy=1 / psy_rd=1.00:0.05 / mixed_ref=1 / me_range=48 / chroma_me=1 / trellis=2 / 8x8dct=1 / cqm=0 / deadzone=21,11 / fast_pskip=0 / chroma_qp_offset=-3 / threads=6 / lookahead_threads=1 / sliced_threads=0 / nr=0 / decimate=1 / interlaced=0 / bluray_compat=0 / constrained_intra=0 / bframes=10 / b_pyramid=2 / b_adapt=2 / b_bias=0 / direct=3 / weightb=1 / open_gop=0 / weightp=2 / keyint=250 / keyint_min=25 / scenecut=40 / intra_refresh=0 / rc_lookahead=80 / rc=2pass / mbtree=1 / bitrate=1856 / ratetol=1.0 / qcomp=0.60 / qpmin=0 / qpmax=69 / qpstep=4 / cplxblur=20.0 / qblur=0.5 / ip_ratio=1.40 / aq=1:1.00
Default : Yes
Forced : No
Audio
ID : 2
Format : AC-3
Format/Info : Audio Coding 3
Mode extension : CM (complete main)
Format settings, Endianness : Big
Codec ID : A_AC3
Duration : 43mn 40s
Bit rate mode : Constant
Bit rate : 384 Kbps
Channel(s) : 6 channels
Channel positions : Front: L C R, Side: L R, LFE
Sampling rate : 48.0 KHz
Bit depth : 16 bits
Compression mode : Lossy
Stream size : 120 MiB (17%)
Default : Yes
Forced : No

Скриншоты


[Профиль] [ЛС]
Показать сообщения:    

Текущее время: Сегодня 14:33

Часовой пояс: GMT



Вы не можете начинать темы
Вы не можете отвечать на сообщения
Вы не можете редактировать свои сообщения
Вы не можете удалять свои сообщения
Вы не можете голосовать в опросах
Вы не можете прикреплять файлы к сообщениям
Вы не можете скачивать файлы