Бойцовский клуб для животных / Animal Fight Club (Эми Фостер / Amy Foster) [2014, Документальный, HDTV 1080i] [Сезон 2] [Серии: 1-6 (6)]

 
Автор Сообщение

TorrentFilm ®

Пол:

Стаж: 2 года

Сообщений: 7741



Награды: Нет

Торрент-статистика

Создавать темы 26-Дек-2014 02:00

[Цитировать]

Бойцовский клуб для животных
Animal Fight Club
-Сезон 1 / Сезон 2- Год выпуска: 2014
Страна: США
Жанр: Документальный
Продолжительность: 6 серий по 44 минуты.
Перевод: Студийный (одноголосый закадровый)
Доп. инфо о переводе: студия "VELES"
Русские субтитры: нет
Режиссер: Эми Фостер / Amy Foster
Описание: Программа Бойцовский клуб для животных состоит из 3 частей, в которых показаны драки между самыми большими, злыми и часто очень неожиданными бойцами мира животных. От львов и бегемотов, до волков, бизонов и крокодилов – соперники происходят из разных уголков света. В Бойцовском Клубе для Животных вы найдете яркий свет, драму и тестостерон традиционных боев без правил - сериал раскрывает секреты тактики и оружия, которое люди не могут использовать. Здесь нет запрещенных приемов – в дикой природе в ход идет все.
Сэмпл:
Тип релиза: HDTV 1080i
Контейнер: TS
Видео кодек: H.264
Аудио кодек: MP2
Видео: MPEG4 Video (H.264), 1920x1080, 16:9, ~10416 kbps, 25 fps
Аудио RUS: MP2, 192 Кбит/с, 48 kHz, 2 ch
Аудио ENG: MP2, 192 Кбит/с, 48 kHz, 2 ch

Список выпусков/серий


Серия 1: Гризли, гуанако, жуки
Что происходит, когда дикие животные нападают на своих собратьев? Посмотрите на разборки медведей и на скворцов, защищающих свое гнездо.-Серия 2: Леопарды, кабаны, раки-щелкуны
Битвы в мире животных: от снежной Сибири, где скудные ресурсы вынуждают мощных беркутов бороться за пищу, до свирепого боя леопардов в Серенгети.-Серия 3: Кенгуру, тигры, осьминоги
Смотрите второй сезон программы о битвах в мире животных, чтобы узнать научные факты о тактике и вооружении его самых свирепых представителей.-Серия 4: Койоты, крабы, орлы
Посмотрите на битвы животных, обитающих на экстремальной высоте или в глубине, включая поединки белоголовых орланов и разборки в стае койотов.-Серия 5: Бородавочники, гиппопотамы, мангусты
В этой серии вас ждут новые бои в мире животных: от попытки самки барсука прокормить детенышей, бегемота, защищающего семью, до боя диких индеек.-Серия 6: Росомахи, шершни, коалы
Посмотрите, как два брата-льва устраивают переворот в прайде, гребнистые крокодилы бьются за доступ к реке, а шершни живьем пожирают свою матку.

MediaInfo

GeneralID : 1 (0x1)Complete name : \...\Бойцовский клуб для животных\Animal Fight Club S02E01 - Гризли, гуанако, жуки (Rus, Eng, HDTV-1080i) [2014].tsFormat : MPEG-TSFile size : 3.52 GiBDuration : 43mn 34sOverall bit rate mode : VariableOverall bit rate : 11.6 MbpsMaximum Overall bit rate : 35.5 Mbps
VideoID : 4113 (0x1011)Menu ID : 1 (0x1)Format : AVCFormat/Info : Advanced Video CodecFormat profile : High@L4.0Format settings, CABAC : YesFormat settings, ReFrames : 4 framesCodec ID : 27Duration : 43mn 23sBit rate : 10.6 MbpsWidth : 1 920 pixelsHeight : 1 080 pixelsDisplay aspect ratio : 16:9Frame rate : 25.000 fpsStandard : ComponentColor space : YUVChroma subsampling : 4:2:0Bit depth : 8 bitsScan type : InterlacedScan order : Top Field FirstBits/(Pixel*Frame) : 0.204Stream size : 3.21 GiB (91%)Color primaries : BT.709Transfer characteristics : BT.709Matrix coefficients : BT.709
Audio #1ID : 4352 (0x1100)Menu ID : 1 (0x1)Format : MPEG AudioFormat version : Version 1Format profile : Layer 2Codec ID : 4Duration : 43mn 23sBit rate mode : ConstantBit rate : 192 KbpsChannel(s) : 2 channelsSampling rate : 48.0 KHzCompression mode : LossyDelay relative to video : -14msStream size : 59.6 MiB (2%)
Audio #2ID : 4353 (0x1101)Menu ID : 1 (0x1)Format : MPEG AudioFormat version : Version 1Format profile : Layer 2Codec ID : 4Duration : 43mn 23sBit rate mode : ConstantBit rate : 192 KbpsChannel(s) : 2 channelsSampling rate : 48.0 KHzCompression mode : LossyDelay relative to video : -14msStream size : 59.6 MiB (2%)

Внимание! Раздача ведётся путём добавления новых серий

При каждом добавлении создаётся новый торрент. Чтобы начать докачку новой серии, пользователям необходимо сделать следующее:
(1) остановить скачивание,
(2) удалить старый торрент у себя из клиента (старые серии удалять не надо),
(3) скачать новый торрент и запустить его у себя в клиенте вместо старого, при этом указать клиенту путь в старую папку куда и должно происходить скачивание новых серий.
Ваш клиент при этом должен произвести хеширование (проверку) старой папки (если не производит сам - помогите ему сделать это), и будет докачивать только те серии которых у вас ещё нет. Старые серии при этом не удаляются, а продолжают раздаваться!
Если вы уже удалили старые серии, то предотвратить повторную закачку старых серий можно, отжав галочку в соответсвующих местах при запуске нового торрента. По возможности, желательно не удалять старые серии как можно дольше чтобы релизёр не столько продолжал раздавать старые серии, а смог сконцентрироваться на новых.
!!! Торрент-файл обновлён 22.12.2014, добавлена 6 серия !!!
[Профиль] [ЛС]
Показать сообщения:    

Текущее время: Сегодня 18:49

Часовой пояс: GMT



Вы не можете начинать темы
Вы не можете отвечать на сообщения
Вы не можете редактировать свои сообщения
Вы не можете удалять свои сообщения
Вы не можете голосовать в опросах
Вы не можете прикреплять файлы к сообщениям
Вы не можете скачивать файлы