Бойцовая рыбка / Rumble Fish (1983) BDRip 1080p | P, A

 
Автор Сообщение

Russian Mafia ®

Пол:

Стаж: 1 год 8 месяцев

Сообщений: 4257



Награды: 10 (Подробнее)

За внесенный вклад в развитие сайта (Количество: 1) Top Releaser 2 (Количество: 1) Mega Seeder 4 (Количество: 1)
Торрент-статистика

Создавать темы 10-Окт-2015 06:45

[Цитировать]

Информация о фильме
Название: Бойцовая рыбка
Оригинальное название: Rumble Fish
Год выхода: 1983
Жанр: Драма, криминал
Режиссер: Френсис Форд Коппола
В ролях: Мэтт Диллон, Микки Рурк, Дайан Лэйн, Деннис Хоппер, Николас Кейдж, Дайана Скаруид, Винсент Спано, Крис Пенн, Лоренс Фишбёрн, Уильям Смит
О фильме: В центре фильма — юный Расти Джеймс (Диллон), лидер небольшой преступной банды промышленного городка. Брат Расти, Мотоцикл-бой (Рурк), появляется в сцене криминальной разборки банды Расти и его врагов, нарушив тем самым установленное двумя месяцами ранее обещание не ввязываться в преступную жизнь городка. Последующие события в корне изменили мир Расти, но к концу фильма, следуя примеру своего брата, он способен сбежать от роли в игре, в которую его вовлекают.
Награды и номинации:
1984 — два приза на кинофестивале в Сан-Себастьяне: приз ФИПРЕССИ и OCIC Award (оба — Фрэнсис Форд Коппола)
1984 — номинация на премию «Золотой глобус» за лучшую оригинальную музыку (Стюарт Коупленд)
1984 — номинация на премию «Молодой актёр» лучшей молодой актрисе (Дайан Лэйн)
Бюджет: 10000000 $

Страна: США
Студия: Hotweather Films, Zoetrope Studios
Продолжительность: 01:34:13
Перевод: Профессиональный (многоголосый закадровый) x 2, Авторский (одноголосый закадровый)
Субтитры: Русские, английские
Файл
Качество: BDRip 1080p
Формат: MKV
Видео кодек: H264
Аудио кодек: AC3
Видео: MPEG4 Video (H264), 1920x1040, 23.976fps, 12.0 Mbps
Аудио #01: Русский: Dolby AC3, 48000 Hz, 2ch, 384 kbps - Многоголосый закадровый, R5
Аудио #02: Русский: Dolby AC3, 48000 Hz, 2ch, 192 kbps - Многоголосый закадровый, ОРТ
Аудио #03: Русский: Dolby AC3, 48000 Hz, 6ch, 448 kbps - Одноголосый закадровый, М. Яроцкий (kyberpunk)
Аудио #04: Английский: Dolby AC3, 48000 Hz, 6ch, 448 kbps
Формат субтитров: Softsub (SRT)
Сэмпл

MediaInfo:

General
Unique ID : 192728210317525912968575584776420341012 (0x90FE1A673E4BD542B6F134DEF9C83514)
Complete name : F:Torrent 21983.Rumble.Fish.renta23.mkv
Format : Matroska
Format version : Version 4 / Version 2
File size : 8.86 GiB
Duration : 1h 34mn
Overall bit rate : 13.5 Mbps
Movie name : 1983 Бойцовая рыбка / renta23
Encoded date : UTC 2015-10-10 00:31:58
Writing application : mkvmerge v8.3.0 ('Over the Horizon') 32bit
Writing library : libebml v1.3.1 + libmatroska v1.4.2
DURATION : 01:33:46.267000000
NUMBER_OF_FRAMES : 822
NUMBER_OF_BYTES : 53113
_STATISTICS_WRITING_APP : mkvmerge v8.3.0 ('Over the Horizon') 32bit
_STATISTICS_WRITING_DATE_UTC : 2015-10-10 00:31:58
_STATISTICS_TAGS : BPS DURATION NUMBER_OF_FRAMES NUMBER_OF_BYTES
Video
ID : 1
Format : AVC
Format/Info : Advanced Video Codec
Format profile : High@L4.1
Format settings, CABAC : Yes
Format settings, ReFrames : 3 frames
Codec ID : V_MPEG4/ISO/AVC
Duration : 1h 34mn
Bit rate : 12.0 Mbps
Width : 1 920 pixels
Height : 1 040 pixels
Display aspect ratio : 1.85:1
Frame rate mode : Constant
Frame rate : 23.976 fps
Color space : YUV
Chroma subsampling : 4:2:0
Bit depth : 8 bits
Scan type : Progressive
Bits/(Pixel*Frame) : 0.251
Stream size : 7.71 GiB (87%)
Title : 1983 Бойцовая рыбка
Writing library : x264 core 146 r2538 121396c
Encoding settings : cabac=1 / ref=4 / deblock=1:-1:-1 / analyse=0x3:0x113 / me=umh / subme=11 / psy=1 / psy_rd=1.20:0.30 / mixed_ref=1 / me_range=32 / chroma_me=1 / trellis=2 / 8x8dct=1 / cqm=0 / deadzone=21,11 / fast_pskip=0 / chroma_qp_offset=-4 / threads=12 / lookahead_threads=3 / sliced_threads=0 / nr=0 / decimate=0 / interlaced=0 / bluray_compat=0 / constrained_intra=0 / bframes=12 / b_pyramid=1 / b_adapt=2 / b_bias=0 / direct=3 / weightb=1 / open_gop=0 / weightp=2 / keyint=250 / keyint_min=23 / scenecut=40 / intra_refresh=0 / rc_lookahead=50 / rc=2pass / mbtree=1 / bitrate=12000 / ratetol=1.0 / qcomp=0.60 / qpmin=0 / qpmax=69 / qpstep=4 / cplxblur=20.0 / qblur=0.5 / vbv_maxrate=14000 / vbv_bufsize=14000 / nal_hrd=none / filler=0 / ip_ratio=1.40 / aq=1:1.00
Language : English
Default : Yes
Forced : No
Audio #1
ID : 2
Format : AC-3
Format/Info : Audio Coding 3
Mode extension : CM (complete main)
Format settings, Endianness : Big
Codec ID : A_AC3
Duration : 1h 34mn
Bit rate mode : Constant
Bit rate : 384 Kbps
Channel(s) : 2 channels
Channel positions : Front: L R
Sampling rate : 48.0 KHz
Compression mode : Lossy
Stream size : 259 MiB (3%)
Title : Многоголосый закадровый, R5
Language : Russian
Default : Yes
Forced : No
Audio #2
ID : 3
Format : AC-3
Format/Info : Audio Coding 3
Mode extension : CM (complete main)
Format settings, Endianness : Big
Codec ID : A_AC3
Duration : 1h 34mn
Bit rate mode : Constant
Bit rate : 192 Kbps
Channel(s) : 2 channels
Channel positions : Front: L R
Sampling rate : 48.0 KHz
Compression mode : Lossy
Stream size : 129 MiB (1%)
Title : Многоголосый закадровый, ОРТ
Language : Russian
Default : No
Forced : No
Audio #3
ID : 4
Format : AC-3
Format/Info : Audio Coding 3
Mode extension : CM (complete main)
Format settings, Endianness : Big
Codec ID : A_AC3
Duration : 1h 34mn
Bit rate mode : Constant
Bit rate : 448 Kbps
Channel(s) : 6 channels
Channel positions : Front: L C R, Side: L R, LFE
Sampling rate : 48.0 KHz
Compression mode : Lossy
Stream size : 302 MiB (3%)
Title : Одноголосый закадровый, М. Яроцкий (kyberpunk)
Language : Russian
Default : No
Forced : No
Audio #4
ID : 5
Format : AC-3
Format/Info : Audio Coding 3
Mode extension : CM (complete main)
Format settings, Endianness : Big
Codec ID : A_AC3
Duration : 1h 34mn
Bit rate mode : Constant
Bit rate : 448 Kbps
Channel(s) : 6 channels
Channel positions : Front: L C R, Side: L R, LFE
Sampling rate : 48.0 KHz
Compression mode : Lossy
Stream size : 302 MiB (3%)
Language : English
Default : No
Forced : No
Text #1
ID : 6
Format : UTF-8
Codec ID : S_TEXT/UTF8
Codec ID/Info : UTF-8 Plain Text
Language : Russian
Default : No
Forced : No
Text #2
ID : 7
Format : UTF-8
Codec ID : S_TEXT/UTF8
Codec ID/Info : UTF-8 Plain Text
Language : Russian
Default : No
Forced : No
Text #3
ID : 8
Format : UTF-8
Codec ID : S_TEXT/UTF8
Codec ID/Info : UTF-8 Plain Text
Language : English
Default : No
Forced : No
Menu
00:00:00.000 : en:Billiards
00:03:45.516 : en:Patty
00:12:25.453 : en:Rumble
00:18:39.326 : en:Homesick
00:23:22.025 : en:Tender Distractions
00:28:53.022 : en:Father
00:32:51.135 : en:Wild Night
00:37:51.269 : en:Pied Piper
00:41:49.506 : en:Nighttime Prowl
00:54:15.460 : en:Dead End
00:58:40.683 : en:Nothing Personal
01:09:36.255 : en:Mirror Image
01:18:58.316 : en:Waiting for What?
01:28:47.530 : en:The Ocean

[Профиль] [ЛС]
Кто просматривает тему:

Форум Тема Автор Размер
Фильмы (HD Rips | 720p, 1080p) Бойцовский клуб / Fight Club (Дэвид Финчер / David Fincher) [1999 г., триллер, драма, криминал, BDRip 720p] Russian Mafia 6.81 GB
Документальные HD Бойцовский клуб для животных / Animal Fight Club (Эми Фостер / Amy Foster) [2014, Документальный, HDTV 1080i] [Сезон 2] [Серии: 1-6 (6)] TorrentFilm 20.02 GB
Animal Planet Бойцовский клуб для леопарда / Leopard Fight Club (Ян Лампен / Jan Lampen) [2013, Документальный, HDTVRip-AVC] reversefile 700 MB
Animal Planet Бойцовский клуб для леопарда / Leopard Fight Club (Ян Лампен / Jan Lampen) [2013, Документальный, HDTVRip] reversefile 700 MB
Фильмы 2014 года Бойцовский клуб зомби / Zombie Fight Club (2014) HDRip | L1 достали все 1.45 GB
Фильмы 2014 года Зомби: Бойцовский Клуб / Zombie Fight Club (2014) BDRip 720p | L2 , L1 sergej644 4.53 GB
Фильмы (HD Rips | 720p, 1080p) Рюдзо и семеро бойцов / Ryuzo to 7 nin no kobun tachi (2015) BDRip 720p | Line BOSS 4.68 GB
Фильмы (HD Rips | 720p, 1080p) Рюдзо и семеро бойцов / Ryuzo to 7 nin no kobun tachi (2015) BDRip 720p | P | iTunes достали все 4.68 GB
Показать сообщения:    

Текущее время: Сегодня 14:28

Часовой пояс: GMT



Вы не можете начинать темы
Вы не можете отвечать на сообщения
Вы не можете редактировать свои сообщения
Вы не можете удалять свои сообщения
Вы не можете голосовать в опросах
Вы не можете прикреплять файлы к сообщениям
Вы не можете скачивать файлы