Божий Сын / Son of God (2014) BDRemux 1080p | L1

 
Автор Сообщение

sergej644 ®

Пол:

Стаж: 4 года 11 месяцев

Сообщений: 6040

Откуда: Soviet Union



Награды: Нет

Торрент-статистика

Создавать темы 21-Янв-2015 00:15

[Цитировать]

Божий Сын / Son of God
Страна: США
Жанр: драма
Год выпуска: 2014
Продолжительность: 02:18:13
Озвучивание: Любительское (одноголосое) qwerty
Режиссёр: Кристофер Спенсер
В ролях: Себастьян Кнапп, Пол Нопс, Дарси Линкольн, Дэвид Ринтул, Гари Оливер, Уильям Хьюстон, Стюарт Скудамор, Нонсо Анози, Конан Стивенс, Джасса Ахлувалиа
О фильме: История Иисуса Христа от Рождения, до Его учения, Распятия и Вознесения.

Качество: BDRemux 1080p
Формат: MKV
Видео: MPEG-4 AVC / 30492 kb/s / 1920x1080
Аудио #1: Russian / AC3 / 384 kb/s (6 ch) - VO qwerty
Аудио #2: English / DTS-HD MA / 3732 kb/s (6 ch) - Original
Аудио #3: English / AC3 / 448 kb/s (6 ch) - Descriрtion
Субтитры: Russian, English
Дополнительно: Сохранены оригинальные чаптеры как на Blu-Ray
Скачать: Sample

Скриншоты

МедиаИнфо

Общее
Уникальный идентификатор : 172298947323977968800746439803101316460 (0x819F91F8DFB9F1D9B9ECBE539C91056C)
Полное имя : D:Son.of.God.2014.1080p.BluRay.AVC.DTS-HD.MA.5.1-HDASon of God 2014 HDR BDRemux 1080p.mkv
Формат : Matroska
Версия формата : Version 4 / Version 2
Размер файла : 33,7 Гбайт
Продолжительность : 2 ч. 18 м.
Режим общего битрейта : Переменный
Общий поток : 34,9 Мбит/сек
Название фильма : Son of God 2014 HDR BDRemux 1080p
Дата кодирования : UTC 2014-06-02 20:51:56
Программа кодирования : mkvmerge v6.9.1 ('Blue Panther') 64bit built on Apr 18 2014 18:23:38
Библиотека кодирования : libebml v1.3.0 + libmatroska v1.4.1
Attachment : Yes
Видео
Идентификатор : 1
Формат : AVC
Формат/Информация : Advanced Video Codec
Профиль формата : High@L4.1
Параметр CABAC формата : Да
Параметр ReFrames формата : 4 кадра
Идентификатор кодека : V_MPEG4/ISO/AVC
Продолжительность : 2 ч. 18 м.
Вид битрейта : Переменный
Максимальный битрейт : 37,0 Мбит/сек
Ширина : 1920 пикселей
Высота : 1080 пикселей
Соотношение сторон : 16:9
Режим частоты кадров : Постоянный
Частота кадров : 23,976 кадра/сек
Цветовое пространство : YUV
Субдискретизация насыщенности : 4:2:0
Битовая глубина : 8 бит
Тип развёртки : Прогрессивная
Заголовок : Son of God 2014 HDR BDRemux 1080p
Язык : English
Default : Да
Forced : Нет
Аудио #1
Идентификатор : 2
Формат : AC-3
Формат/Информация : Audio Coding 3
Расширение режима : CM (complete main)
Параметр Endianness формата : Big
Идентификатор кодека : A_AC3
Продолжительность : 2 ч. 18 м.
Вид битрейта : Постоянный
Битрейт : 384 Кбит/сек
Каналы : 6 каналов
Расположение каналов : Front: L C R, Side: L R, LFE
Частота : 48,0 КГц
Битовая глубина : 16 бит
Метод сжатия : С потерями
Размер потока : 380 Мбайт (1%)
Заголовок : VO qwerty
Язык : Russian
Default : Да
Forced : Нет
Аудио #2
Идентификатор : 3
Формат : DTS
Формат/Информация : Digital Theater Systems
Профиль формата : MA / Core
Режим : 16
Параметр Endianness формата : Big
Идентификатор кодека : A_DTS
Продолжительность : 2 ч. 18 м.
Вид битрейта : Переменный
Битрейт : Неизвестно / 1509 Кбит/сек
Каналы : 6 каналов
Расположение каналов : Front: L C R, Side: L R, LFE
Частота : 48,0 КГц
Битовая глубина : 24 бит
Метод сжатия : Без потерь / Lossy
Заголовок : Original
Язык : English
Default : Нет
Forced : Нет
Аудио #3
Идентификатор : 4
Формат : AC-3
Формат/Информация : Audio Coding 3
Расширение режима : CM (complete main)
Параметр Endianness формата : Big
Идентификатор кодека : A_AC3
Продолжительность : 2 ч. 18 м.
Вид битрейта : Постоянный
Битрейт : 448 Кбит/сек
Каналы : 6 каналов
Расположение каналов : Front: L C R, Side: L R, LFE
Частота : 48,0 КГц
Битовая глубина : 16 бит
Метод сжатия : С потерями
Размер потока : 443 Мбайт (1%)
Заголовок : Descriрtion
Язык : English
Default : Нет
Forced : Нет
Текст #1
Идентификатор : 5
Формат : UTF-8
Идентификатор кодека : S_TEXT/UTF8
Идентификатор кодека/Информация : UTF-8 Plain Text
Заголовок : Full
Язык : Russian
Default : Нет
Forced : Нет
Текст #2
Идентификатор : 6
Формат : UTF-8
Идентификатор кодека : S_TEXT/UTF8
Идентификатор кодека/Информация : UTF-8 Plain Text
Заголовок : Full
Язык : English
Default : Нет
Forced : Нет
Текст #3
Идентификатор : 7
Формат : UTF-8
Идентификатор кодека : S_TEXT/UTF8
Идентификатор кодека/Информация : UTF-8 Plain Text
Заголовок : SDH
Язык : English
Default : Нет
Forced : Нет
Текст #4
Идентификатор : 8
Формат : PGS
Режим смешивания : zlib
Идентификатор кодека : S_HDMV/PGS
Идентификатор кодека/Информация : The same subtitle format used on BDs/HD-DVDs
Заголовок : Full
Язык : French
Default : Нет
Forced : Нет
Текст #5
Идентификатор : 9
Формат : UTF-8
Идентификатор кодека : S_TEXT/UTF8
Идентификатор кодека/Информация : UTF-8 Plain Text
Заголовок : Full
Язык : Spanish
Default : Нет
Forced : Нет
Меню
00:00:00.000 : en:Chapter 01
00:02:42.412 : en:Chapter 02
00:04:37.486 : en:Chapter 03
00:07:39.876 : en:Chapter 04
00:12:54.190 : en:Chapter 05
00:17:53.197 : en:Chapter 06
00:21:30.915 : en:Chapter 07
00:22:48.075 : en:Chapter 08
00:25:31.613 : en:Chapter 09
00:27:20.389 : en:Chapter 10
00:31:43.110 : en:Chapter 11
00:36:24.140 : en:Chapter 12
00:39:06.970 : en:Chapter 13
00:43:51.462 : en:Chapter 14
00:47:10.703 : en:Chapter 15
00:50:26.023 : en:Chapter 16
00:54:30.100 : en:Chapter 17
00:56:23.797 : en:Chapter 18
00:59:18.430 : en:Chapter 19
01:02:31.289 : en:Chapter 20
01:08:59.344 : en:Chapter 21
01:13:03.796 : en:Chapter 22
01:16:17.198 : en:Chapter 23
01:21:48.904 : en:Chapter 24
01:24:13.924 : en:Chapter 25
01:28:03.278 : en:Chapter 26
01:29:59.394 : en:Chapter 27
01:35:30.558 : en:Chapter 28
01:39:38.347 : en:Chapter 29
01:44:03.195 : en:Chapter 30
01:48:44.810 : en:Chapter 31
01:54:08.884 : en:Chapter 32
02:02:08.404 : en:Chapter 33
02:05:21.764 : en:Chapter 34
02:09:47.154 : en:Chapter 35
02:14:19.260 : en:Chapter 36
[Профиль] [ЛС]
Кто просматривает тему:

Форум Тема Автор Размер
Отечественные мультфильмы Божий дар (Сергей Братерский) [1998, мультфильм, короткометражка, SATRip] TorrentFilm 64 MB
Фильмы (HD Rips | 720p, 1080p) Божий карман / God's Pocket (2014) BDRip 1080p by msltel | P2 Белочка 6.37 GB
Фильмы (HD Rips | 720p, 1080p) Божий карман / God's Pocket (2014) BDRip 720p by msltel | P2 sergej644 2.55 GB
Фильмы 2006-2008 года Перст Божий / Совершенно неожиданно / Etsba Elohim / Out of the Blue (Игаль Бурштейн / Yigal Bursztyn) [2008, Израиль, комедия, SATRip] Sub Rus + Original Heb TorrentFilm 1.35 GB
Фильмы 2014 года Сын Божий / Son of God (Кристофер Спенсер / Christopher Spencer) [2014, США, драма, BDRip-AVC] VO (qwerty) + Sub Rus + Original Eng painkiller 2.91 GB
Фильмы 2014 года Сын Божий / Son of God (Кристофер Спенсер / Christopher Spencer) [2014, США, драма, HDRip] VO (qwerty) bot 1.46 GB
Фильмы 2014 года Сын Божий / Son of God (Кристофер Спенсер / Christopher Spencer) [2014, США, Драма, история, HDRip] VO (qwerty) bot 2.18 GB
Фильмы 2014 года Сын Божий / Son of God (Кристофер Спенсер) [2014, Драма] HDRip | P BOSS 1.46 GB
Показать сообщения:    

Текущее время: Сегодня 04:46

Часовой пояс: GMT



Вы не можете начинать темы
Вы не можете отвечать на сообщения
Вы не можете редактировать свои сообщения
Вы не можете удалять свои сообщения
Вы не можете голосовать в опросах
Вы не можете прикреплять файлы к сообщениям
Вы не можете скачивать файлы