Божий карман / God's Pocket (2014) BDRip 720p by msltel | P2

 
Автор Сообщение

sergej644 ®

Пол:

Стаж: 4 года 11 месяцев

Сообщений: 6046

Откуда: Soviet Union



Награды: Нет

Торрент-статистика

Создавать темы 10-Фев-2015 14:03

[Цитировать]

Год выпуска: 2014
Страна: США
Жанр: драма, криминал
Продолжительность: 01:28:41
Перевод: двухголосый закадровый
Субтитры: нет
Режиссёр: Джон Слэттери
В ролях: Кристина Хендрикс, Филип Сеймур Хоффман, Эдди Марсан, Калеб Лэндри Джонс, Джек О’Коннелл, Билл Бьюэлл, Бриджет Бэркэн, Майкл Дрэйер
Описание: Когда сумасшедший пасынок Микки по имени Леон погибает из-за несчастного случая, никто из живущих по соседству не скорбит о нём. Микки пытается похоронить плохие новости вместе с его телом, но всё усложняется, когда мать мальчика решает выяснить всю правду о случившемся…

Качество: BDRip 720p
Формат: MKV
Видео кодек: H.264
Видео: 1280х536, 3137 kbps, 23.976 кадра/с, 0.191 bpp
Аудио 1: русский, AC3, 448 kbps, 6 ch, 48 kHz [двухголосый закадровый, HamsterStudio]
Аудио 2: английский, AC3, 448 kbps, 6 ch, 48 kHz [оригинал]
Имеются неименованные главы/чаптеры.

Награды

Сандэнс, 2014 год
Номинации (1):
Гран-при в категории «Драматический фильм»

MediaInfo

frame I:953 Avg QP:15.25 size: 96810
frame P:23384 Avg QP:16.50 size: 38860
frame B:103238 Avg QP:18.65 size: 11031
Общее
Уникальный идентификатор : 186229695042390296381024738490051654886 (0x8C1A88DCF677F250BF93DE372EA2F4E6)
Полное имя : D:VideoBogij karman.2014.BDRip.720p.mkv
Формат : Matroska
Версия формата : Version 4 / Version 2
Размер файла : 2,55 Гбайт
Продолжительность : 1 ч. 28 м.
Общий поток : 4115 Кбит/сек
Дата кодирования : UTC 2014-10-11 02:28:23
Программа кодирования : mkvmerge v6.9.1 ('Blue Panther') 64bit built on Apr 18 2014 18:23:38
Библиотека кодирования : libebml v1.3.0 + libmatroska v1.4.1
Видео
Идентификатор : 1
Формат : AVC
Формат/Информация : Advanced Video Codec
Профиль формата : High@L4.1
Параметр CABAC формата : Да
Параметр ReFrames формата : 9 кадров
Идентификатор кодека : V_MPEG4/ISO/AVC
Продолжительность : 1 ч. 28 м.
Битрейт : 3137 Кбит/сек
Ширина : 1280 пикселей
Высота : 536 пикселей
Соотношение сторон : 2,40:1
Режим частоты кадров : Постоянный
Частота кадров : 23,976 кадра/сек
Цветовое пространство : YUV
Субдискретизация насыщенности : 4:2:0
Битовая глубина : 8 бит
Тип развёртки : Прогрессивная
Бит/(Пиксели*Кадры) : 0.191
Размер потока : 1,94 Гбайт (76%)
Заголовок : BDRip -- STarankov
Библиотека кодирования : x264 core 142 r2431 ac76440
Настройки программы : cabac=1 / ref=9 / deblock=1:-1:-1 / analyse=0x3:0x113 / me=umh / subme=10 / psy=1 / psy_rd=1.00:0.15 / mixed_ref=1 / me_range=32 / chroma_me=1 / trellis=2 / 8x8dct=1 / cqm=0 / deadzone=21,11 / fast_pskip=1 / chroma_qp_offset=-3 / threads=6 / lookahead_threads=1 / sliced_threads=0 / nr=0 / decimate=1 / interlaced=0 / bluray_compat=0 / constrained_intra=0 / bframes=8 / b_pyramid=2 / b_adapt=2 / b_bias=0 / direct=3 / weightb=1 / open_gop=0 / weightp=2 / keyint=230 / keyint_min=23 / scenecut=40 / intra_refresh=0 / rc_lookahead=40 / rc=crf / mbtree=0 / crf=18.3 / qcomp=0.60 / qpmin=0 / qpmax=69 / qpstep=4 / vbv_maxrate=40000 / vbv_bufsize=50000 / crf_max=0.0 / nal_hrd=none / filler=0 / ip_ratio=1.40 / pb_ratio=1.30 / aq=1:1.00
Язык : English
Default : Да
Forced : Нет
Аудио #1
Идентификатор : 2
Формат : AC-3
Формат/Информация : Audio Coding 3
Расширение режима : CM (complete main)
Параметр Endianness формата : Big
Идентификатор кодека : A_AC3
Продолжительность : 1 ч. 28 м.
Вид битрейта : Постоянный
Битрейт : 448 Кбит/сек
Каналы : 6 каналов
Расположение каналов : Front: L C R, Side: L R, LFE
Частота : 48,0 КГц
Битовая глубина : 16 бит
Метод сжатия : С потерями
Размер потока : 284 Мбайт (11%)
Заголовок : DVO (HamsterStudio)
Язык : Russian
Default : Да
Forced : Нет
Аудио #2
Идентификатор : 3
Формат : AC-3
Формат/Информация : Audio Coding 3
Расширение режима : CM (complete main)
Параметр Endianness формата : Big
Идентификатор кодека : A_AC3
Продолжительность : 1 ч. 28 м.
Вид битрейта : Постоянный
Битрейт : 448 Кбит/сек
Каналы : 6 каналов
Расположение каналов : Front: L C R, Side: L R, LFE
Частота : 48,0 КГц
Битовая глубина : 16 бит
Метод сжатия : С потерями
Размер потока : 284 Мбайт (11%)
Заголовок : Original
Язык : English
Default : Нет
Forced : Нет
Меню
00:00:00.000 : en:Chapter 1
00:06:56.124 : en:Chapter 2
00:15:42.858 : en:Chapter 3
00:21:52.686 : en:Chapter 4
00:29:06.578 : en:Chapter 5
00:36:10.585 : en:Chapter 6
00:43:38.407 : en:Chapter 7
00:52:14.256 : en:Chapter 8
01:00:10.732 : en:Chapter 9
01:07:08.941 : en:Chapter 10
01:14:44.813 : en:Chapter 11
01:23:25.125 : en:Chapter 12

Скриншоты (увеличить)

[Профиль] [ЛС]
Кто просматривает тему:

Форум Тема Автор Размер
Отечественные мультфильмы Божий дар (Сергей Братерский) [1998, мультфильм, короткометражка, SATRip] TorrentFilm 64 MB
Фильмы (HD Rips | 720p, 1080p) Божий карман / God's Pocket (2014) BDRip 1080p by msltel | P2 Белочка 6.37 GB
Фильмы (HD DVD, Blu-ray и BDRemux) Божий Сын / Son of God (2014) BDRemux 1080p | L1 sergej644 33.73 GB
Фильмы 2006-2008 года Перст Божий / Совершенно неожиданно / Etsba Elohim / Out of the Blue (Игаль Бурштейн / Yigal Bursztyn) [2008, Израиль, комедия, SATRip] Sub Rus + Original Heb TorrentFilm 1.35 GB
Фильмы 2014 года Сын Божий / Son of God (Кристофер Спенсер / Christopher Spencer) [2014, США, драма, BDRip-AVC] VO (qwerty) + Sub Rus + Original Eng painkiller 2.91 GB
Фильмы 2014 года Сын Божий / Son of God (Кристофер Спенсер / Christopher Spencer) [2014, США, драма, HDRip] VO (qwerty) bot 1.46 GB
Фильмы 2014 года Сын Божий / Son of God (Кристофер Спенсер / Christopher Spencer) [2014, США, Драма, история, HDRip] VO (qwerty) bot 2.18 GB
Фильмы 2014 года Сын Божий / Son of God (Кристофер Спенсер) [2014, Драма] HDRip | P BOSS 1.46 GB
Показать сообщения:    

Текущее время: Сегодня 01:21

Часовой пояс: GMT



Вы не можете начинать темы
Вы не можете отвечать на сообщения
Вы не можете редактировать свои сообщения
Вы не можете удалять свои сообщения
Вы не можете голосовать в опросах
Вы не можете прикреплять файлы к сообщениям
Вы не можете скачивать файлы