Боец / A Fighting Man (Дэмиан Ли / Damian Lee) [2014, Канада, боевик, драма, WEB-DLRip] MVO (iTunes)

 
Автор Сообщение

Создавать темы 14-Июл-2014 09:07

Боец / A Fighting Man
Страна: Канада
Жанр: боевик, драма
Год выпуска: 2014
Продолжительность: 01:28:15
Перевод: Профессиональный (многоголосый закадровый) iTunes
Cубтитры: нет
Режиссер: Дэмиан Ли / Damian Lee
В ролях: Доминик Пёрселл, Луис Госсет мл., Горд Аполлони, Даина Барбо, Адам Бич, Грег Стивен Браун, Джеймс Каан, Эмма Кэмпбелл, Кива Карлсон, Майкл Клилэнд, Фамке Янссен
Описание: История двух мужчин, которые сойдутся в бою на ринге, бой который изменит их жизнь. Один человек борется за искупление и прощение, в то время как другой борется за надежду и перемены. В конце концов, выигрывают или проигрывают, они понимают, что нужны друг другу, что бы сделать это.
Доп. информация:
Сэмпл: http://multi-up.com/979185
Качество видео: WEB-DLRip
Формат видео: AVI
Видео: XVID, 720х304 (2,35:1), 23,976 кадра/сек, 1824 Кбит/сек
Аудио: AC-3, 48,0 КГц, 384 Кбит/сек (6 каналов)

MediaInfo

Формат : AVI
Формат/Информация : Audio Video Interleave
Размер файла : 1,37 Гбайт
Продолжительность : 1 ч. 28 м.
Общий поток : 2217 Кбит/сек
Программа кодирования : VirtualDubMod 1.5.10.3 | www.virtualdub-fr.org || (build 2550/release)
Библиотека кодирования : VirtualDubMod build 2550/release
Видео
Идентификатор : 0
Формат : MPEG-4 Visual
Профиль формата : Advanced Simple@L5
Параметр BVOP формата : 2
Параметр QPel формата : Нет
Параметр GMC формата : Без точки перехода
Параметр матрицы формата : Default (MPEG)
Идентификатор кодека : XVID
Идентификатор кодека/Подсказка : XviD
Продолжительность : 1 ч. 28 м.
Битрейт : 1824 Кбит/сек
Ширина : 720 пикселей
Высота : 304 пикселя
Соотношение сторон : 2,35:1
Частота кадров : 23,976 кадра/сек
Цветовое пространство : YUV
Субдискретизация насыщенности : 4:2:0
Битовая глубина : 8 бит
Тип развёртки : Прогрессивная
Метод сжатия : С потерями
Бит/(Пиксели*Кадры) : 0.348
Размер потока : 1,12 Гбайт (82%)
Библиотека кодирования : XviD 1.2.1 (UTC 2008-12-04)
Аудио
Идентификатор : 1
Формат : AC-3
Формат/Информация : Audio Coding 3
Расширение режима : CM (complete main)
Параметр Endianness формата : Big
Идентификатор кодека : 2000
Продолжительность : 1 ч. 28 м.
Вид битрейта : Постоянный
Битрейт : 384 Кбит/сек
Каналы : 6 каналов
Расположение каналов : Front: L C R, Side: L R, LFE
Частота : 48,0 КГц
Битовая глубина : 16 бит
Метод сжатия : С потерями
Размер потока : 242 Мбайт (17%)
Выравнивание : Разделение по промежуткам
Продолжительность промежутка : 42 мс. (1,00 видеокадр)
Время предзагрузки промежутка : 500 мс.

Скриншоты

 
Показать сообщения:    

Текущее время: Сегодня 08:50

Часовой пояс: GMT



Вы не можете начинать темы
Вы не можете отвечать на сообщения
Вы не можете редактировать свои сообщения
Вы не можете удалять свои сообщения
Вы не можете голосовать в опросах
Вы не можете прикреплять файлы к сообщениям
Вы не можете скачивать файлы