Боец [01-12 из 12] (2004) DVDRip-AVC от New-Team

 
Автор Сообщение

Белочка ®

Пол:

Стаж: 5 лет 1 месяц

Сообщений: 2089



Награды: 1 (Подробнее)

Girls (Количество: 1)
Торрент-статистика

Создавать темы 20-Ноя-2014 22:40

[Цитировать]

«Неплохой повод сказать правду»- Страна: Россия
Производство: Рен Фильм, Рен-ТВ
Жанр: боевик, драма, криминал
Год выпуска: 2004
Продолжительность: 09:36:10 (серия ~ 00:48:00)
Перевод: не требуется
Оригинальная аудиодорожка: русский
Cубтитры: нет
Режиссер: Евгений Серов
В ролях:
Дмитрий Марьянов, Александр Носик, Наиль Идрисов, Анна Снаткина, Андрей Ильин, Александр Ильин, Рамиль Сабитов, Алёна Яковлева, Вячеслав Шалевич, Александр Пашутин...
Описание:
Максим Паладин — морской пехотинец. Он был тяжело ранен, но сумел выкарабкаться с того света, чтобы остаться со своей любимой. Вика Варшавская всячески способствовала выздоровлению Максима и хочет выйти за него замуж. Она работает в самой обычной больнице, она тщательно скрывает, что является дочерью мультимиллионера. Ее отец — Павел Валерьянович Варшавский — когда-то жил от зарплаты до зарплаты, а потом уехал в Америку и там сказочно разбогател. Но здесь, в России, остались люди, которым он что-то должен. Правда, этим людям не нужно «что-то», они хотят забрать все…-
Исходник: 4хDVD9 R5
Тип релиза: DVDRip-AVC
Контейнер: MKV
Видео: 704->750x430 (16:9), 25 fps, H264 ~ 1435 kbps avg, 0.190 bit/pixel
Аудио: 48 kHz, Dolby AC3 2.0, 192 kbps

Серии

1 серия
Олигарх Варшавский готовится выдать дочь Вику замуж за бывшего морпеха Максима Паладина. Но в эти планы вмешивается его бывший компаньон Лев Акуленок. Варшавский едет в Ростов-на-Дону на встречу с Акуленком. Его сопровождают дочь Вика и верный телохранитель Азов. Туда же на поезде отправляется Макс Паладин со своим товарищем Темновым. Но Паладина настигают люди Акуленка...
2 серия
Темнов приезжает в Ростов в одиночестве. Он говорит Вике Варшавской, что Паладин отстал от поезда, но скоро приедет. В это время Макса преследует Халиф и его люди. Бывший морпех выходит победителем в этой схватке и приезжает в Ростов. Азов говорит Паладину, что Темнов - не тот, за кого себя выдает. В ростовском доме Варшавского происходит взрыв.
3 серия
Дело Варшавского берет следователь Елизавета Карцева. Паладин попадает в больницу, где на него вновь покушаются люди Акуленка. Паладин теряет способность говорить и становится главным подозреваемым в деле Варшавского. Его друг Темнов выдает себя за Паладина. Азов вступает в схватку с Халифом и едва уносит ноги. Халифа задерживают сотрудники милиции.
4 серия
В Ростове проходят похороны Варшавского и его дочери Вики.
Паладина переводят в СИЗО. Там он получает кличку Немой. Зеки пытаются поставить его на колени. Но бывший морской пехотинец выживает и наживает первых врагов. Следователь Карцева говорит Немому, что пока не может ему помочь, а заключенный Прокс предсказывает его будущее.
5 серия
Немого переводят в другую камеру, где его уже ждут кровожадные зеки. От их расправы Немого спасают бывшие сокамерники.
Темнов вместо Паладина готовится к принятию наследства Варшавского. Он подозревает, что следователь Карцева его раскусила.
Азов планирует новые шаги на пути к завладению капиталом своего бывшего шефа.
6 серия
В Ростов приезжает американский поверенный Варшавского для оформления наследства. По его словам, в собственности Варшавского было более 700 миллионов долларов. Темнову названивает странный субъект, который говорит, что все про него знает. Азов навещает следователя Карцеву и шантажирует ее.
7 серия
Погибает Карцева. Дело Варшавского передают Горчицыну, который представляет интересы Азова. Суд приговаривает Паладина к 20 годам лишения свободы. Его этапируют в колонию строгого режима. На зоне Немой устраивается на работу в кузницу. Его напарником становится Вулкан, который рассказывает ему о знаменитом зеке Гоше Бегунке. Немой хочет разгадать тайну Бегунка. Немого к себе вызывает смотрящий зоны Империал.
8 серия
Немой встречает на зоне боксера Сладко, который обещает разделаться с ним в решающем поединке. Бывший соперник Немого, Халиф, рассказывает Максу, что их обоих заказал Азов. Халиф начинает готовить Немого к схватке со Сладко. Вулкан обещает Немому открыть дорогу, которую прокопал на волю Гоша Бегунок. Темнов, как и планировал Азов, становится обладателем права наследства Варшавского.
9 серия
На тюремной сцене готовятся поставить "Короля Лир". Тем временем Вулкан показывает Немому тоннель на волю, вход в который находится за декорациями спектакля. Азов получает права на наследство Варшавского и в поединке убивает Темнова.
10 серия
На сцене колонии дают "Короля Лир". В это время Немой встречается в поединке со Сладко. Максу сообщают, что его заказал Империал. Халиф обещает Империалу за некую сумму убить Немого.
11 серия
Немой и Вулкан встречаются с Империалом.
Режиссер спектакля "Король Лир" сообщает администрации колонии о том, что Немой собирается убежать. В колонии предпринимаются меры безопасности. Империал передает Халифу деньги за убийство Немого, но погибает сам. Немой и Халиф бегут из колонии.
12 серия
Халиф погибает.
Азов находит Вику Варшавскую по фотографии. За Максом Паладиным охотятся киллеры, но ему все же удается добраться до бывшего партнера Варшавского. Акуленок выдает Паладину всю подноготную своих отношений с Варшавским. Макс находит союзников в противостоянии с Азовым. Он готовится к решающей встрече с бывшим телохранителем Варшавского.

MediaInfo

Общее
Полное имя : Boec.2004.DVDRip-AVC_[New-team]_by_AVP_Studio11.mkv
Формат : Matroska
Версия формата : Version 2
Размер файла : 559 Мбайт
Продолжительность : 48 м.
Общий поток : 1629 Кбит/сек
Дата кодирования : UTC 2014-11-19 12:00:31
Программа кодирования : mkvmerge v6.1.0 ('Old Devil') built on Mar 4 2013 09:10:42
Библиотека кодирования : libebml v1.3.0 + libmatroska v1.4.0
Видео
Идентификатор : 1
Формат : AVC
Формат/Информация : Advanced Video Codec
Профиль формата : High@L4.1
Параметр CABAC формата : Да
Параметр ReFrames формата : 8 кадров
Идентификатор кодека : V_MPEG4/ISO/AVC
Продолжительность : 48 м.
Битрейт : 1435 Кбит/сек
Ширина : 704 пикселя
Высота : 430 пикселей
Соотношение сторон : 16:9
Соотношение сторон в оригинале : 16:9
Режим частоты кадров : Постоянный
Частота кадров : 25,000 кадров/сек
Цветовое пространство : YUV
Субдискретизация насыщенности : 4:2:0
Битовая глубина : 8 бит
Тип развёртки : Прогрессивная
Бит/(Пиксели*Кадры) : 0.190
Размер потока : 482 Мбайт (86%)
Библиотека кодирования : x264 core 138 r2356 a1d3d17
Настройки программы : cabac=1 / ref=8 / deblock=1:-2:-1 / analyse=0x3:0x113 / me=umh / subme=10 / psy=1 / psy_rd=1.00:0.05 / mixed_ref=1 / me_range=32 / chroma_me=1 / trellis=2 / 8x8dct=1 / cqm=0 / deadzone=21,11 / fast_pskip=0 / chroma_qp_offset=-3 / threads=6 / lookahead_threads=1 / sliced_threads=0 / nr=0 / decimate=0 / interlaced=0 / bluray_compat=0 / constrained_intra=0 / bframes=8 / b_pyramid=2 / b_adapt=2 / b_bias=0 / direct=3 / weightb=1 / open_gop=0 / weightp=2 / keyint=250 / keyint_min=25 / scenecut=40 / intra_refresh=0 / rc=2pass / mbtree=0 / bitrate=1435 / ratetol=1.0 / qcomp=0.60 / qpmin=0 / qpmax=69 / qpstep=4 / cplxblur=20.0 / qblur=0.5 / ip_ratio=1.40 / pb_ratio=1.30 / aq=1:1.00
Default : Да
Forced : Нет
Аудио
Идентификатор : 2
Формат : AC-3
Формат/Информация : Audio Coding 3
Расширение режима : CM (complete main)
Параметр Endianness формата : Big
Идентификатор кодека : A_AC3
Продолжительность : 48 м.
Вид битрейта : Постоянный
Битрейт : 192 Кбит/сек
Каналы : 2 канала
Расположение каналов : Front: L R
Частота : 48,0 КГц
Битовая глубина : 16 бит
Метод сжатия : С потерями
Размер потока : 65,9 Мбайт (12%)
Default : Да
Forced : Нет

Скриншоты

[Профиль] [ЛС]
Кто просматривает тему:

Форум Тема Автор Размер
Отечественные cериалы Боец [01-12 из 12] (2004) DVDRip от New-Team sergej644 4.37 GB
Показать сообщения:    

Текущее время: Сегодня 06:05

Часовой пояс: GMT



Вы не можете начинать темы
Вы не можете отвечать на сообщения
Вы не можете редактировать свои сообщения
Вы не можете удалять свои сообщения
Вы не можете голосовать в опросах
Вы не можете прикреплять файлы к сообщениям
Вы не можете скачивать файлы