Боевые страницы (Дмитрий Бабиченко) [1939, мультипликационный фильм-плакат, DVDRip] Eng hardsub

 
Автор Сообщение

TorrentFilm ®

Пол:

Стаж: 2 года 11 месяцев

Сообщений: 7763



Награды: Нет

Торрент-статистика

Создавать темы 15-Окт-2015 00:09

[Цитировать]

Боевые страницы- Страна: СССР
Жанр: мультипликационный фильм-плакат
Продолжительность: 00:09:00
Год выпуска: 1939
Русские субтитры: нет-Режиссёр: Дмитрий Бабиченко- | Релиз: -Описание: О славных страницах истории Советской Армии.-Качество: DVDRip
Формат: AVI
Видео: 640x480 (1.33:1), 25 fps, XviD MPEG-4 ~1902 kbps avg, 0.25 bit/pixel
Аудио: 48 kHz, AC3 Dolby Digital, 2/0 (L,R) ch, ~224 kbps
Субтитры: английские вшитые (hardsub)

MediaInfo

GeneralComplete name : Боевые страницы.1939.XviD.AC3-rutracker.aviFormat : AVIFormat/Info : Audio Video InterleaveFile size : 138 MiBDuration : 9mn 0sOverall bit rate : 2 136 KbpsMovie name : Боевые страницы.1939.XviD.AC3-rutrackerWriting application : VirtualDubMod 1.5.10.2 (build 2542/release)Comment : РГ Мультфильмы / Rutracker.org
VideoID : 0Format : MPEG-4 VisualFormat profile : Advanced Simple@L5Format settings, BVOP : 2Format settings, QPel : NoFormat settings, GMC : No warppointsFormat settings, Matrix : CustomCodec ID : XVIDCodec ID/Hint : XviDDuration : 9mn 0sBit rate : 1 902 KbpsWidth : 640 pixelsHeight : 480 pixelsDisplay aspect ratio : 4:3Frame rate : 25.000 fpsColor space : YUVChroma subsampling : 4:2:0Bit depth : 8 bitsScan type : ProgressiveCompression mode : LossyBits/(Pixel*Frame) : 0.248Stream size : 123 MiB (89%)Writing library : XviD 65
AudioID : 1Format : AC-3Format/Info : Audio Coding 3Mode extension : CM (complete main)Format settings, Endianness : BigCodec ID : 2000Duration : 9mn 0sBit rate mode : ConstantBit rate : 224 KbpsChannel(s) : 2 channelsChannel positions : Front: L RSampling rate : 48.0 KHzCompression mode : LossyStream size : 14.4 MiB (10%)Alignment : Split accross interleavesInterleave, duration : 40 ms (1.00 video frame)Interleave, preload duration : 500 ms
[Профиль] [ЛС]
Кто просматривает тему:

Форум Тема Автор Размер
Фильмы (HD Rips | 720p, 1080p) Боевые свиньи / War Pigs (2015) BDRip 1080p | L2 достали все 5.01 GB
Фильмы 2015 года Боевые свиньи / War Pigs (Райан Литтл) [2015, боевик, военный] HDRip | L2 BOSS 1.45 GB
Азиатские фильмы Да, мадам! / Yes, Madam! (Кори Юэнь) [1985 г., Боевик, боевые искусства, BDRip] indicom 5.99 GB
Азиатские фильмы Королева Тибета / Владычица Тибета / Queen of Tibet (У Фашэнь) [1986 г., Драма, исторический, боевые искусства, DVD5] indicom 4.22 GB
Разное Медведев А.Н. - Скоростной бой. Боевые связки без оружия, основанные на ударах (1997) DjVu sergej644 18 MB
R.G.TorrentFilm Video Производство боевых вертолетов Ми-24 (Алексей Старченко) [2013 г., Документальный, авиация, SATRip] Один 777 250 MB
О войнах, армии и оружии Самые странные боевые машины мира [01-05] (2015) WEB-DL 1080p Swager 1.17 GB
Зарубежные Становление легенды в 3Д / Huang feihong zhi yingxiong you meng / Rise of the Legend 3D (Сянь-ян Чоу / Hsien-yang Chou) [2014, Боевик, Драма, Биография, Боевые искусства, BDrip-AVC] VO, Half... TorrentFilm 19.85 GB
Показать сообщения:    

Текущее время: Сегодня 15:02

Часовой пояс: GMT



Вы не можете начинать темы
Вы не можете отвечать на сообщения
Вы не можете редактировать свои сообщения
Вы не можете удалять свои сообщения
Вы не можете голосовать в опросах
Вы не можете прикреплять файлы к сообщениям
Вы не можете скачивать файлы