Боевой механизм / Боекомплект / Swap / Weaponized (Тимоти Вудворд мл. / Timothy Woodward Jr.) [2016, США, Фантастика, боевик, триллер, HDRip] DVO (Parovoz Production)

 
Автор Сообщение

TorrentFilm ®

Пол:

Стаж: 2 года

Сообщений: 7741



Награды: Нет

Торрент-статистика

Создавать темы 05-Апр-2016 00:09

[Цитировать]

Боевой механизм / Боекомплект / Swap / Weaponized
Страна: США
Жанр: Фантастика, боевик, триллер
Год выпуска: 2016
Продолжительность: 01:30:58
Parovoz Production
Перевод: Любительский (двухголосый закадровый Parovoz Production
Cубтитры: нет
Оригинальная аудиодорожка: нет
Режиссер: Тимоти Вудворд мл. / Timothy Woodward Jr.
В ролях: Том Сайзмор, Джонни Месснер, Микки Рурк, Тейлор Коул, Джон Фу, Майкл Паре, Крис Дэймон, Каллен Дж. Чэмберс, Тимоти Вудворд мл., Джон Лофлин.
Описание: Ближайшее будущее, биотехнологии достигли достаточного уровня, чтобы интегрировать воедино человеческую плоть и боевую роботизированную броню. В секретных лабораториях созданы первые практически непобедимые солдаты-киборги. Полицейский детектив, расследуя убийство своего сына - жертвы теракта, решает перепрограммировать киборгов и направить их против виновной террористической группировки. Однако, вирус, которым он заражает командную систему биороботов превращает их в бесжалостных убийц всего живого вокруг...
Группа желает всем приятного просмотра!
Качество видео: HDRip [BDRip 1080p]
Формат видео: AVI
Видео: 640x272 (2.35:1), 23.976 fps, XviD build 73 ~993 kbps avg, 0.24 bit/pixel
Аудио: 48 kHz, MPEG Layer 3, 2 ch, ~128.00 kbps avg
Сэмпл: http://multi-up.com/1095834 Сравнение[url=viewtopic.php?t=5179520]http://torrentfilm.net/forum/viewtopic.php?t=5179520[/url]
http://screenshotcomparison.com/comparison/167906

MediaInfo

General
Complete name : D:\Торренты\Swap Weaponized_Drek_Rutracker.org.avi
Format : AVI
Format/Info : Audio Video Interleave
File size : 736 MiB
Duration : 1h 30mn
Overall bit rate : 1 131 Kbps
Writing application : VirtualDubMod 1.5.10.2 (build 2540/release)
Writing library : VirtualDubMod build 2540/release
Video
ID : 0
Format : MPEG-4 Visual
Format profile : Advanced Simple@L5
Format settings, BVOP : 2
Format settings, QPel : No
Format settings, GMC : No warppoints
Format settings, Matrix : Custom
Codec ID : XVID
Codec ID/Hint : XviD
Duration : 1h 30mn
Bit rate : 994 Kbps
Width : 640 pixels
Height : 272 pixels
Display aspect ratio : 2.35:1
Frame rate : 23.976 (23976/1000) fps
Color space : YUV
Chroma subsampling : 4:2:0
Bit depth : 8 bits
Scan type : Progressive
Compression mode : Lossy
Bits/(Pixel*Frame) : 0.238
Stream size : 647 MiB (88%)
Writing library : XviD 73
Audio
ID : 1
Format : MPEG Audio
Format version : Version 1
Format profile : Layer 3
Mode : Joint stereo
Mode extension : MS Stereo
Codec ID : 55
Codec ID/Hint : MP3
Duration : 1h 30mn
Bit rate mode : Constant
Bit rate : 128 Kbps
Channel(s) : 2 channels
Sampling rate : 48.0 KHz
Compression mode : Lossy
Stream size : 83.3 MiB (11%)
Alignment : Aligned on interleaves
Interleave, duration : 42 ms (1.00 video frame)
Interleave, preload duratio : 504 ms
Writing library : LAME3.99r
Encoding settings : -m j -V 4 -q 2 -lowpass 17 -b 128
Скриншоты
[Профиль] [ЛС]
Кто просматривает тему:

Форум Тема Автор Размер
Разная литература Ардашев А.Н. - Учебник выживания войсковых разведчиков. Боевой опыт достали все 26 MB
Фильмы (HD Rips | 720p, 1080p) Боевой механизм / Swap (2016) BDRip 1080p | L2 BOSS 6.68 GB
Фильмы (HD Rips | 720p, 1080p) Боевой механизм / Swap (2016) BDRip 720p | L2 BOSS 4.49 GB
Фильмы 2016 года Боевой механизм / Swap (2016) HDRip | L2 BOSS 1.45 GB
Фильмы 2016 года Боевой механизм / Swap (Тимоти Вудворд мл. / Timothy Woodward Jr.) [2016, США, Фантастика, Боевик, Триллер, HDRip] DVO (Parovoz Production) + Original Eng TorrentFilm 1.45 GB
R.G.TorrentFilm Video Боевой механизм / Боекомплект / Swap / Weaponized (Тимоти Вудворд мл. / Timothy Woodward Jr.) [2016, США, Фантастика, боевик, триллер, HDRip] DVO (Parovoz Production) Один 777 747 MB
Фантастика, фэнтези Книжная серия - «Боевое фэнтези», изд-ства «Лениздат» (60 томов) [2005-2012, Фэнтези, FB2] обновлено 29.02.2016 Garik014 80 MB
Фильмы (DVD 5/9) Одна семья / Бир аилə / Bir ailə (Григорий Александров) [1943, СССР, Драма, боевой киносборник, DVD5] TorrentFilm 3.76 GB
Показать сообщения:    

Текущее время: Сегодня 07:14

Часовой пояс: GMT



Вы не можете начинать темы
Вы не можете отвечать на сообщения
Вы не можете редактировать свои сообщения
Вы не можете удалять свои сообщения
Вы не можете голосовать в опросах
Вы не можете прикреплять файлы к сообщениям
Вы не можете скачивать файлы