Бог войны / God of War / Dang kou feng yun (2017) BDRip 1080p | L2

 
Автор Сообщение

BOSS ®

Пол:

Стаж: 3 года 1 месяц

Сообщений: 8145

Откуда: ODESSA



Награды: 22 (Подробнее)

Top Seeder 2 (Количество: 1) Mega Releaser 4 (Количество: 1) Mega Seeder 3 (Количество: 1)
Торрент-статистика

Создавать темы 13-Сен-2017 10:37

[Цитировать]

Информация о фильме
Название: Бог войны
Оригинальное название: God of War / Dang kou feng yun
Год выхода: 2017
Жанр: боевик, история, военный, биография
Режиссер: Гордон Чан
В ролях: Винсент Чжао, Саммо Хун, Ясуаки Курата, Реджина Вань, Кэйсукэ Койдэ, Тимми Хун, Рю Кохата, Дин Лю, Майкл Тун, Ван Бань
О фильме:
1557 год. Морские разбойники уже несколько десятилетий грабят восточные рубежи Поднебесной. После того, как пираты захватили большой портовый город Цэньган, столичный генштаб посылает на помощь старому полководцу Юй Дао его более молодого и амбициозного коллегу Ци Цзигуана, уверенного в том, что в войне с пиратами можно поставить точку. Для этого необходимы две вещи — железная дисциплина и новая армия.

Страна: Гонконг, Китай
Продолжительность: 02:08:36
Перевод: Любительский (двухголосый закадровый) [East Dream]
Файл
Кодек: x.264
Качество: BDRip 1080p
Видео: AVC, 1920x804 (2.40:1), 24.000 fps, 14.0 Mbps (0.378 bit/pixel)
Звук 1: AC-3, 48.0 KHz, 2 ch, 192 Kbps, CBR | Russian
Звук 2: DTS-HD MA, 48.0 KHz, 8 ch, 8190 Kbps | Chinese
Субтитры: английские

MI

Общее
Уникальный идентификатор : 231750957021877037496636091894701791017 (0xAE599C5BDFB2A35F84BD265F98149729)
Полное имя : God of War.2017.BDRip.1080p
Формат : Matroska
Версия формата : Version 4 / Version 2
Размер файла : 20,1 Гбайт
Продолжительность : 2 ч. 8 м.
Общий поток : 22,4 Мбит/сек
Дата кодирования : UTC 2017-09-13 10:00:28
Программа кодирования : mkvmerge v8.3.0 ('Over the Horizon') 64bit
Библиотека кодирования : libebml v1.3.1 + libmatroska v1.4.2
Видео
Идентификатор : 1
Формат : AVC
Формат/Информация : Advanced Video Codec
Профиль формата : High@L4.1
Параметр CABAC формата : Да
Параметр ReFrames формата : 5 кадров
Идентификатор кодека : V_MPEG4/ISO/AVC
Продолжительность : 2 ч. 8 м.
Битрейт : 14,0 Мбит/сек
Ширина : 1920 пикселей
Высота : 804 пикселя
Соотношение сторон : 2,40:1
Режим частоты кадров : Постоянный
Частота кадров : 24,000 кадра/сек
Цветовое пространство : YUV
Субдискретизация насыщенности : 4:2:0
Битовая глубина : 8 бит
Тип развёртки : Прогрессивная
Бит/(Пиксели*Кадры) : 0.378
Размер потока : 12,6 Гбайт (63%)
Библиотека кодирования : x264 core 146 r2538 121396c
Настройки программы : cabac=1 / ref=5 / deblock=1:-3:-3 / analyse=0x3:0x133 / me=umh / subme=10 / psy=1 / psy_rd=1.00:0.00 / mixed_ref=1 / me_range=48 / chroma_me=1 / trellis=2 / 8x8dct=1 / cqm=0 / deadzone=21,11 / fast_pskip=0 / chroma_qp_offset=-2 / threads=12 / lookahead_threads=1 / sliced_threads=0 / nr=0 / decimate=0 / interlaced=0 / bluray_compat=0 / constrained_intra=0 / bframes=6 / b_pyramid=2 / b_adapt=2 / b_bias=0 / direct=3 / weightb=1 / open_gop=0 / weightp=2 / keyint=230 / keyint_min=22 / scenecut=40 / intra_refresh=0 / rc_lookahead=60 / rc=2pass / mbtree=1 / bitrate=14000 / ratetol=1.0 / qcomp=0.60 / qpmin=0 / qpmax=69 / qpstep=4 / cplxblur=20.0 / qblur=0.5 / vbv_maxrate=50000 / vbv_bufsize=50000 / nal_hrd=none / filler=0 / ip_ratio=1.40 / aq=1:1.00
Default : Да
Forced : Нет
Аудио #1
Идентификатор : 2
Формат : AC-3
Формат/Информация : Audio Coding 3
Параметр Endianness формата : Big
Идентификатор кодека : A_AC3
Продолжительность : 2 ч. 8 м.
Вид битрейта : Постоянный
Битрейт : 192 Кбит/сек
Каналы : 2 канала
Расположение каналов : Front: L R
Частота : 48,0 КГц
Частота кадров : 31,250 кадров/сек (1536 spf)
Битовая глубина : 16 бит
Метод сжатия : С потерями
Размер потока : 177 Мбайт (1%)
Заголовок : L2 [East Dream]
Язык : Russian
Default : Да
Forced : Нет
Аудио #2
Идентификатор : 3
Формат : DTS
Формат/Информация : Digital Theater Systems
Профиль формата : MA / Core
Режим : 16
Параметр Endianness формата : Big
Идентификатор кодека : A_DTS
Продолжительность : 2 ч. 8 м.
Вид битрейта : Переменный / Постоянный
Битрейт : 8190 Кбит/сек / 1509 Кбит/сек
Каналы : 8 каналов / 6 каналов
Расположение каналов : Front: L C R, Side: L R, Back: L R, LFE / Front: L C R, Side: L R, LFE
Частота : 48,0 КГц
Частота кадров : 93,750 кадра/сек (512 spf)
Битовая глубина : 24 бит
Метод сжатия : Без потерь / Lossy
Размер потока : 7,35 Гбайт (37%)
Язык : Chinese
Default : Нет
Forced : Нет
Текст
Идентификатор : 4
Формат : UTF-8
Идентификатор кодека : S_TEXT/UTF8
Идентификатор кодека/Информация : UTF-8 Plain Text
Продолжительность : 2 ч. 2 м.
Битрейт : 37 бит/сек
ElementCount : 1538
Размер потока : 33,8 Кбайт (0%)
Язык : English
Default : Да
Forced : Нет

Скриншоты

[Профиль] [ЛС]
Кто просматривает тему:

Показать сообщения:    

Текущее время: Сегодня 21:27

Часовой пояс: GMT



Вы не можете начинать темы
Вы не можете отвечать на сообщения
Вы не можете редактировать свои сообщения
Вы не можете удалять свои сообщения
Вы не можете голосовать в опросах
Вы не можете прикреплять файлы к сообщениям
Вы не можете скачивать файлы