Боги Египта / Gods of Egypt (2016) DVD5 | D

 
Автор Сообщение

достали все ®

Пол:

Стаж: 1 год 8 месяцев

Сообщений: 6581



Награды: 12 (Подробнее)

Top Releaser 4 (Количество: 1) Mega Releaser 2 (Количество: 1) Top Releaser 3 (Количество: 1)
Торрент-статистика

Создавать темы 22-Авг-2016 03:30

[Цитировать]

--Информация о фильме
Название: Боги Египта
Оригинальное название: Gods of Egypt
Год выхода: 2016
Жанр: фэнтези, боевик, приключения
Режиссер: Алекс Пройас
В ролях: Брентон Туэйтс, Джерард Батлер, Николай Костер-Вальдау, Чедвик Боузман, Элоди Юнг, Кортни Итон, Руфус Сьюэлл, Джеффри Раш, Брайан Браун, Рэйчел Блейк-О фильме:
Некогда мирное и процветающее египетское царство погружается в хаос: беспощадный бог тьмы Сет убивает своего брата Осириса и узурпирует трон. Вызов ему неожиданно бросает простой смертный, находчивый молодой вор. Чтобы вернуть к жизни свою прекрасную возлюбленную, ему приходится заручиться поддержкой могущественного и мстительного бога Гора. Лишь выдержав испытание на прочность и принеся в жертву все самое дорогое, им удастся противостоять Сету и его приспешникам в мире живых и мире мертвых.- -Страна: США, Австралия
Студия: Mystery Clock Cinema, Pyramania, Summit Entertainment, Thunder Road
Продолжительность: 121 мин. / 02:01
Перевод: полное дублирование-Файл
Кодек: MPEG2
Качество: DVD5 (сжатый)
Видео: PAL 16:9 (720x576@1024x576) VBR 4968 Kbps, 25.000 fps
Аудио: Dolby AC3, 6 ch, 48.0 KHz, 448 Kbps
Субтитры: украинские--

Процесс изготовления диска

Исходник: Боги Египта / Gods of Egypt (2016) DVD9 от New-Team | Лицензия
Удалены: предупреждающие надписи, анонсы (в меню кнопки затерты). Команды диска переписаны заново, оставлены два VTS.
Видео сжато на 32.4%
Меню: статичное, недействующие кнопки затерты и закрыты.
Обработка и сжатие: DVD ReMake Pro + DVD Rebuilder + CCE SP2 [7 проходов] + Работа с меню (Adobe PhotoShop и MuxMan).
Автор релиза: J9-1000

MediaInfo

Общее
Полное имя : D:Gods of Egypt (2016) DVD5VIDEO_TSVTS_02_2.VOB
Формат : MPEG-PS
Размер файла : 1024 Мбайт
Продолжительность : 25 м.
Режим общего битрейта : Переменный
Общий поток : 5526 Кбит/сек
Видео
Идентификатор : 224 (0xE0)
Формат : MPEG Video
Версия формата : Version 2
Профиль формата : Main@Main
Параметр BVOP формата : Да
Параметр матрицы формата : Выборочная
Параметр GOP формата : M=3, N=12
Продолжительность : 25 м.
Вид битрейта : Переменный
Битрейт : 4968 Кбит/сек
Максимальный битрейт : 9000 Кбит/сек
Ширина : 720 пикселей
Высота : 576 пикселей
Соотношение сторон : 16:9
Частота кадров : 25,000 кадров/сек
Стандарт вещания : PAL
Цветовое пространство : YUV
Субдискретизация насыщенности : 4:2:0
Битовая глубина : 8 бит
Тип развёртки : Прогрессивная
Порядок развёртки : Нижнее поле первое
Метод сжатия : С потерями
Бит/(Пиксели*Кадры) : 0.479
Временной код первого кадра : 00:26:46:01
Оригинал временного кода : Group of pictures header
Размер потока : 921 Мбайт (90%)
Аудио
Идентификатор : 189 (0xBD)-128 (0x80)
Формат : AC-3
Формат/Информация : Audio Coding 3
Расширение режима : CM (complete main)
Параметр Endianness формата : Big
Режим смешивания : DVD-Video
Продолжительность : 25 м.
Вид битрейта : Постоянный
Битрейт : 448 Кбит/сек
Каналы : 6 каналов
Расположение каналов : Front: L C R, Side: L R, LFE
Частота : 48,0 КГц
Частота кадров : 31,250 кадров/сек (1536 spf)
Метод сжатия : С потерями
Задержка видео : -424 мс.
Размер потока : 83,0 Мбайт (8%)
Текст
Идентификатор : 189 (0xBD)-32 (0x20)
Формат : RLE
Формат/Информация : Run-length encoding
Режим смешивания : DVD-Video
Меню

Скриншоты


[Профиль] [ЛС]
Кто просматривает тему:

Показать сообщения:    

Текущее время: Сегодня 20:21

Часовой пояс: GMT



Вы не можете начинать темы
Вы не можете отвечать на сообщения
Вы не можете редактировать свои сообщения
Вы не можете удалять свои сообщения
Вы не можете голосовать в опросах
Вы не можете прикреплять файлы к сообщениям
Вы не можете скачивать файлы