Боги Египта / Gods of Egypt (2016) BDRip 720p от HELLYWOOD | D, A | Лицензия

 
Автор Сообщение

Russian Mafia ®

Пол:

Стаж: 1 год 8 месяцев

Сообщений: 4257



Награды: 10 (Подробнее)

Top Releaser 3 (Количество: 1) Mega Seeder 5 (Количество: 1) Mega Seeder 3 (Количество: 1)
Торрент-статистика

Создавать темы 01-Июн-2016 13:10

[Цитировать]

Информация о фильме
Название: Боги Египта
Оригинальное название: Gods of Egypt
Год выхода: 2016
Жанр: фэнтези, боевик, приключения
Режиссер: Алекс Пройас
В ролях: Брентон Туэйтс, Джерард Батлер, Николай Костер-Вальдау, Чедвик Боузман, Элоди Юнг, Кортни Итон, Руфус Сьюэлл, Джеффри Раш, Брайан Браун, Рэйчел Блейк
О фильме:
Некогда мирное и процветающее египетское царство погружается в хаос: беспощадный бог тьмы Сет убивает своего брата Осириса и узурпирует трон. Вызов ему неожиданно бросает простой смертный, находчивый молодой вор. Чтобы вернуть к жизни свою прекрасную возлюбленную, ему приходится заручиться поддержкой могущественного и мстительного бога Гора. Лишь выдержав испытание на прочность и принеся в жертву все самое дорогое, им удастся противостоять Сету и его приспешникам в мире живых и мире мертвых.

Страна: США
Студия: Mystery Clock Cinema, Pyramania, Summit Entertainment
Продолжительность: 02:07:03
Перевод: Профессиональный (дублированный) Централ Партнершип + Авторский (одноголосый, закадровый) А.Матвеев
Релиз:
Файл
Формат: Matroska
Видео: 1280x544 at 23.976 fps, x264@L4.1, ~5211 kbps avg
Аудио#1: Russian: 48 kHz, AC3, 3/2 (L,C,R,l,r) + LFE ch, ~640.00 kbps avg |Дубляж, Централ Партнершип|
Аудио#2: Russian: 48 kHz, AC3, 3/2 (L,C,R,l,r) + LFE ch, ~640.00 kbps avg |Авторский, А.Матвеев|
Аудио#3: English: 48 kHz, AC3, 3/2 (L,C,R,l,r) + LFE ch, ~640.00 kbps avg
Субтитры: Russian (x2), English (Full + SDH + SDH-Colored)
***Сохранены оригинальные главы как на Blu-ray.
***Автор рипа: potroks.

Знаете ли Вы, что...

Сет в мифологии древнего Египта - ещё и бог войны.
Для участия в съёмках актёру Николаю Костеру-Вальдау пришлось сбросить вес.
В фильме не занят ни один актёр из Египта.
Это первый фильм, снятый на камеру с новыми линзами «Primo 70» компании «Panavision».
Около 200 человек (от актёров до членов съёмочной группы и техников) из принимавших участие в работе над фильмом «Боги Египта» прежде работали в фильме «Безумный Макс: Дорога ярости» (2015). Это старший ассистент режиссёра (П. Дж. Вотен), руководитель группы спецэффектов (Джулиан Димси), каскадёры (Тим Вонг и другие), актёры (Кортни Итон, Эбби Ли, Брюс Спенс и другие) и многие другие.
Сюжет фильма основан на древнеегипетских мифах о борьбе между богами Гором и Сетом за власть в Египте.
Съёмки эпизодов в пустыне Сахара проходили в Австралии. Авторы фильма сочли съёмки в самой пустыне Сахара чересчур опасными.
Это первый художественный фильм Алекса Пройаса за семь лет.
Это вторая совместная работа британского актёра Руфуса Сьюэлла и режиссёра Алекса Пройаса. Первым стал фильм «Тёмный город» (1998).
На доспехах Сета отчётливо прослеживается тема шакала, хотя с этим животным у египтян ассоциировался бог Анубис, проводник умерших в загробный мир.
Божества носят одежду или доспехи, соответствующие их образу в древнеегипетской мифологии. Доспехи Сета и Гора напоминают их традиционных животных шакала и сокола, шлемы Хатхор и Тота имеют форму головы коровы и ибиса.
Оружие, которым действуют божества, называется «боевой скипетр». В древнем Египте оно ассоциировалось с правителями - богами и фараонами.
Джерард Батлер впоследствии рассказывал, что как только прочёл в сценарии слово «Бог» применительно к его персонажу, то сразу понял, что придётся заняться своим телом. Актёр сразу же начал тренировки, потому что ему хотелось к началу съёмок выглядеть «соответствующим образом».
Алекс Пройас и компания «Lionsgate» были вынуждены извиняться за преимущественно белый актёрский состав фильма.
В фильме Гору вырывают оба глаза, а затем один возвращают. В мифологии он изначально лишился только одного глаза.
В эпизоде, когда боги и человек идут по водоему, уровень воды по ногам у них одинаковый, несмотря на огромную разницу в росте.

MI

Общее
Уникальный идентификатор : 203460620958131504474212462353104629471 (0x9911171A0386992FAEBCE4153A19EEDF)
Полное имя : Bogi.Egipta.2016.TRIPLE.BDRip.720p.-HELLYWOOD.mkv
Формат : Matroska
Версия формата : Version 4 / Version 2
Размер файла : 6,33 Гбайт
Продолжительность : 2 ч. 7 м.
Общий поток : 7128 Кбит/сек
Название фильма : Gods of Egypt (2016)
Дата кодирования : UTC 2016-06-01 09:18:06
Программа кодирования : mkvmerge v5.9.0 ('On The Loose') built on Dec 15 2012 16:39:58
Библиотека кодирования : libebml v1.3.0 + libmatroska v1.4.0
Видео
Идентификатор : 1
Формат : AVC
Формат/Информация : Advanced Video Codec
Профиль формата : High@L4.1
Параметр CABAC формата : Да
Параметр ReFrames формата : 9 кадров
Идентификатор кодека : V_MPEG4/ISO/AVC
Продолжительность : 2 ч. 7 м.
Битрейт : 5211 Кбит/сек
Ширина : 1280 пикселей
Высота : 534 пикселя
Соотношение сторон : 2,40:1
Режим частоты кадров : Постоянный
Частота кадров : 23,976 кадра/сек
Цветовое пространство : YUV
Субдискретизация насыщенности : 4:2:0
Битовая глубина : 8 бит
Тип развёртки : Прогрессивная
Бит/(Пиксели*Кадры) : 0.318
Размер потока : 4,50 Гбайт (71%)
Заголовок : potroks
Библиотека кодирования : x264 core 146 r2538 121396c
Настройки программы : cabac=1 / ref=9 / deblock=1:-2:-2 / analyse=0x3:0x113 / me=umh / subme=11 / psy=1 / psy_rd=1.05:0.10 / mixed_ref=1 / me_range=48 / chroma_me=1 / trellis=2 / 8x8dct=1 / cqm=0 / deadzone=21,11 / fast_pskip=0 / chroma_qp_offset=-3 / threads=9 / lookahead_threads=2 / sliced_threads=0 / nr=0 / decimate=0 / interlaced=0 / bluray_compat=0 / constrained_intra=0 / bframes=10 / b_pyramid=2 / b_adapt=2 / b_bias=0 / direct=3 / weightb=1 / open_gop=0 / weightp=2 / keyint=240 / keyint_min=23 / scenecut=40 / intra_refresh=0 / rc_lookahead=60 / rc=2pass / mbtree=0 / bitrate=5211 / ratetol=1.0 / qcomp=0.70 / qpmin=0 / qpmax=69 / qpstep=4 / cplxblur=20.0 / qblur=0.5 / vbv_maxrate=14000 / vbv_bufsize=14000 / nal_hrd=none / filler=0 / ip_ratio=1.40 / pb_ratio=1.30 / aq=1:0.80
Язык : English
Default : Да
Forced : Нет
Аудио #1
Идентификатор : 2
Формат : AC-3
Формат/Информация : Audio Coding 3
Расширение режима : CM (complete main)
Параметр Endianness формата : Big
Идентификатор кодека : A_AC3
Продолжительность : 2 ч. 7 м.
Вид битрейта : Постоянный
Битрейт : 640 Кбит/сек
Каналы : 6 каналов
Расположение каналов : Front: L C R, Side: L R, LFE
Частота : 48,0 КГц
Метод сжатия : С потерями
Размер потока : 582 Мбайт (9%)
Заголовок : Dub | DD 5.1 @ 640 kbps - Central Partnership
Язык : Russian
Default : Да
Forced : Нет
Аудио #2
Идентификатор : 3
Формат : AC-3
Формат/Информация : Audio Coding 3
Расширение режима : CM (complete main)
Параметр Endianness формата : Big
Идентификатор кодека : A_AC3
Продолжительность : 2 ч. 7 м.
Вид битрейта : Постоянный
Битрейт : 640 Кбит/сек
Каналы : 6 каналов
Расположение каналов : Front: L C R, Side: L R, LFE
Частота : 48,0 КГц
Метод сжатия : С потерями
Размер потока : 582 Мбайт (9%)
Заголовок : AVO | DD 5.1 @ 640 kbps - A.Matveev
Язык : Russian
Default : Нет
Forced : Нет
Аудио #3
Идентификатор : 4
Формат : AC-3
Формат/Информация : Audio Coding 3
Расширение режима : CM (complete main)
Параметр Endianness формата : Big
Идентификатор кодека : A_AC3
Продолжительность : 2 ч. 7 м.
Вид битрейта : Постоянный
Битрейт : 640 Кбит/сек
Каналы : 6 каналов
Расположение каналов : Front: L C R, Side: L R, LFE
Частота : 48,0 КГц
Метод сжатия : С потерями
Размер потока : 582 Мбайт (9%)
Заголовок : Original | DD 5.1 @ 640 kbps
Язык : English
Default : Нет
Forced : Нет
Текст #1
Идентификатор : 5
Формат : UTF-8
Идентификатор кодека : S_TEXT/UTF8
Идентификатор кодека/Информация : UTF-8 Plain Text
Заголовок : A.Matveev
Язык : Russian
Default : Нет
Forced : Нет
Текст #2
Идентификатор : 6
Формат : UTF-8
Идентификатор кодека : S_TEXT/UTF8
Идентификатор кодека/Информация : UTF-8 Plain Text
Язык : Russian
Default : Нет
Forced : Нет
Текст #3
Идентификатор : 7
Формат : UTF-8
Идентификатор кодека : S_TEXT/UTF8
Идентификатор кодека/Информация : UTF-8 Plain Text
Заголовок : Full
Язык : English
Default : Нет
Forced : Нет
Текст #4
Идентификатор : 8
Формат : UTF-8
Идентификатор кодека : S_TEXT/UTF8
Идентификатор кодека/Информация : UTF-8 Plain Text
Заголовок : SDH
Язык : English
Default : Нет
Forced : Нет
Текст #5
Идентификатор : 9
Формат : UTF-8
Идентификатор кодека : S_TEXT/UTF8
Идентификатор кодека/Информация : UTF-8 Plain Text
Заголовок : SDH-Colored
Язык : English
Default : Нет
Forced : Нет
Меню
00:00:00.000 : en:Chapter 1
00:07:08.009 : en:Chapter 2
00:18:07.544 : en:Chapter 3
00:23:47.259 : en:Chapter 4
00:30:11.808 : en:Chapter 5
00:39:16.518 : en:Chapter 6
00:46:30.621 : en:Chapter 7
00:54:46.074 : en:Chapter 8
01:01:14.128 : en:Chapter 9
01:09:29.037 : en:Chapter 10
01:18:03.345 : en:Chapter 11
01:28:18.251 : en:Chapter 12
01:36:12.055 : en:Chapter 13
01:39:14.655 : en:Chapter 14
01:46:58.328 : en:Chapter 15
01:52:11.015 : en:Chapter 16

Скриншоты


[Профиль] [ЛС]
Кто просматривает тему:

Показать сообщения:    

Текущее время: Сегодня 13:45

Часовой пояс: GMT



Вы не можете начинать темы
Вы не можете отвечать на сообщения
Вы не можете редактировать свои сообщения
Вы не можете удалять свои сообщения
Вы не можете голосовать в опросах
Вы не можете прикреплять файлы к сообщениям
Вы не можете скачивать файлы