Боги Египта / Gods of Egypt (2016) BDRemux 1080p | Лицензия

 
Автор Сообщение

достали все ®

Пол:

Стаж: 1 год 8 месяцев

Сообщений: 6577



Награды: 12 (Подробнее)

Top Releaser 2 (Количество: 1) Mega Seeder 1 (Количество: 1) Mega Releaser 1 (Количество: 1)
Торрент-статистика

Создавать темы 21-Май-2016 03:09

[Цитировать]

Информация о фильме
Название: Боги Египта
Оригинальное название: Gods of Egypt
Год выхода: 2016
Жанр: Фэнтези, приключения
Режиссер: Алекс Пройас
В ролях: Брентон Туэйтс, Джерард Батлер, Николай Костер-Валдау, Чэдвик Боузмэн, Элоди Юнг, Кортни Итон, Руфус Сьюэлл, Джеффри Раш, Брайан Браун, Рэйчел Блэйк, Эмма Бут, Александр Инглэнд, Горан Д’Клюе, Йайа Ден, Эбби Ли, Кеннет Рэнсом, Джон Самаха
О фильме:
Злобный бог пустыни Сет вероломно убивает своего брата Осириса и узурпирует власть над египетским царством. Бог неба Гор, истинный наследник трона, ослеплен и отправлен в изгнание. Однако, посреди наступившего хаоса и мрака нашелся тот, кто усомнился в правоте нового царя. Чтобы вернуть свою возлюбленную к жизни, молодой и находчивый вор заключает сделку с одержимым местью Гором. Им предстоит удивительное и преисполненное опасностями путешествие, где их будут поджидать засады, огонь неприятеля, трагедии ревности и чудесные спасения.

Страна: США
Студия: Mystery Clock Cinema, Pyramania, Summit Entertainment, Thunder Road
Продолжительность: 02:07:02
Перевод: Дублированный | Лицензия (Централ Партнершип)
Файл
Кодек: MPEG-4
Качество: BDRemux 1080p
Видео: 1920x1080, 28.7 Mbit/s, 23.976 fps
Звук:
Аудио #01: 48 kHz, DTS-HD MA, 5.1, 2227 Kbps | Дублированный, Лицензия (Централ Партнершип)
Аудио #02: 48 kHz, DTS:X, 7.1, 4735 kbps | Оригинал |
Субтитры: Английские
Автор релиза:

MI

General
Unique ID : 232278218867616313083326905109422073637 (0xAEBF285FFC0917968ECD208B2168E725)
Complete name : F:VideoGod.of.Egypt.2016.BDREMUX.1080p.ExKinoRay.mkv
Format : Matroska
Format version : Version 4 / Version 2
File size : 31.6 GiB
Duration : 2h 7mn
Overall bit rate mode : Variable
Overall bit rate : 35.6 Mbps
Movie name : God.of.Egypt.2016.BDREMUX.1080p.ExKinoRay
Encoded date : UTC 2016-05-21 00:38:03
Writing application : mkvmerge v8.3.0 ('Over the Horizon') 64bit
Writing library : libebml v1.3.1 + libmatroska v1.4.2
Video
ID : 1
Format : AVC
Format/Info : Advanced Video Codec
Format profile : High@L4.1
Format settings, CABAC : Yes
Format settings, ReFrames : 4 frames
Codec ID : V_MPEG4/ISO/AVC
Duration : 2h 7mn
Bit rate mode : Variable
Bit rate : 28.7 Mbps
Maximum bit rate : 37.0 Mbps
Width : 1 920 pixels
Height : 1 080 pixels
Display aspect ratio : 16:9
Frame rate mode : Constant
Frame rate : 23.976 (24000/1001) fps
Color space : YUV
Chroma subsampling : 4:2:0
Bit depth : 8 bits
Scan type : Progressive
Bits/(Pixel*Frame) : 0.577
Stream size : 25.4 GiB (80%)
Language : English
Default : Yes
Forced : No
Audio #1
ID : 2
Format : DTS
Format/Info : Digital Theater Systems
Format profile : MA / Core
Mode : 16
Format settings, Endianness : Big
Codec ID : A_DTS
Duration : 2h 7mn
Bit rate mode : Variable / Constant
Bit rate : 2 227 Kbps / 1 509 Kbps
Channel(s) : 6 channels
Channel positions : Front: L C R, Side: L R, LFE
Sampling rate : 48.0 KHz
Frame rate : 93.750 fps (512 spf)
Bit depth : 16 bits
Compression mode : Lossless / Lossy
Delay relative to video : 21ms
Stream size : 1.98 GiB (6%)
Title : DUB [License]
Language : Russian
Default : Yes
Forced : No
Audio #2
ID : 3
Format : DTS
Format/Info : Digital Theater Systems
Format profile : X / MA / Core
Mode : 16
Format settings, Endianness : Big
Codec ID : A_DTS
Duration : 2h 7mn
Bit rate mode : Variable / Variable / Constant
Bit rate : 4 735 Kbps / 4 735 Kbps / 1 509 Kbps
Channel(s) : Object Based / 8 channels / 6 channels
Channel positions : Object Based / Front: L C R, Side: L R, Back: L R, LFE / Front: L C R, Side: L R, LFE
Sampling rate : / 48.0 KHz / 48.0 KHz
Frame rate : 93.750 fps (512 spf)
Bit depth : / 24 bits / 24 bits
Compression mode : / Lossless / Lossy
Stream size : 4.20 GiB (13%)
Language : English
Default : No
Forced : No
Text
ID : 4
Format : UTF-8
Codec ID : S_TEXT/UTF8
Codec ID/Info : UTF-8 Plain Text
Duration : 1h 55mn
Bit rate : 46 bps
Count of elements : 1415
Stream size : 39.7 KiB (0%)
Title : Full
Language : English
Default : No
Forced : No
Menu
00:00:00.000 : en:00:00:00.000
00:07:08.011 : en:00:07:08.011
00:18:07.545 : en:00:18:07.545
00:23:47.259 : en:00:23:47.259
00:30:11.810 : en:00:30:11.810
00:39:16.521 : en:00:39:16.521
00:46:30.621 : en:00:46:30.621
00:54:46.074 : en:00:54:46.074
01:01:14.129 : en:01:01:14.129
01:09:29.040 : en:01:09:29.040
01:18:03.345 : en:01:18:03.345
01:28:18.251 : en:01:28:18.251
01:36:12.058 : en:01:36:12.058
01:39:14.657 : en:01:39:14.657
01:46:58.328 : en:01:46:58.328
01:52:11.016 : en:01:52:11.016

Скриншоты

[Профиль] [ЛС]
Кто просматривает тему:

Показать сообщения:    

Текущее время: Сегодня 08:11

Часовой пояс: GMT



Вы не можете начинать темы
Вы не можете отвечать на сообщения
Вы не можете редактировать свои сообщения
Вы не можете удалять свои сообщения
Вы не можете голосовать в опросах
Вы не можете прикреплять файлы к сообщениям
Вы не можете скачивать файлы