Боги Египта / Gods of Egypt (2016) BDRip 720p | D

 
Автор Сообщение

достали все ®

Пол:

Стаж: 1 год 8 месяцев

Сообщений: 6515



Награды: 12 (Подробнее)

Mega Seeder 3 (Количество: 1) Mega Releaser 1 (Количество: 1) За внесенный вклад в развитие сайта (Количество: 1)
Торрент-статистика

Создавать темы 20-Май-2016 08:59

[Цитировать]

Информация о фильме
Название: Боги Египта
Оригинальное название: Gods of Egypt
Год выхода: 2016
Жанр: Фэнтези, приключения
Режиссер: Алекс Пройас
В ролях: Брентон Туэйтс, Джерард Батлер, Николай Костер-Валдау, Чэдвик Боузмэн, Элоди Юнг, Кортни Итон, Руфус Сьюэлл, Джеффри Раш, Брайан Браун, Рэйчел Блэйк, Эмма Бут, Александр Инглэнд, Горан Д’Клюе, Йайа Ден, Эбби Ли, Кеннет Рэнсом, Джон Самаха
О фильме:
Злобный бог пустыни Сет вероломно убивает своего брата Осириса и узурпирует власть над египетским царством. Бог неба Гор, истинный наследник трона, ослеплен и отправлен в изгнание. Однако, посреди наступившего хаоса и мрака нашелся тот, кто усомнился в правоте нового царя. Чтобы вернуть свою возлюбленную к жизни, молодой и находчивый вор заключает сделку с одержимым местью Гором. Им предстоит удивительное и преисполненное опасностями путешествие, где их будут поджидать засады, огонь неприятеля, трагедии ревности и чудесные спасения.

Страна: США
Студия: Mystery Clock Cinema, Pyramania, Summit Entertainment, Thunder Road
Продолжительность: 02:07:02
Перевод: Дублированный (Централ Партнершип)
Файл
Кодек: MPEG-4
Качество: BDRip 720p
Видео: 1280x534, 5496 Kbit/s, 23.976 fps
Звук:
Аудио #01: 48 kHz, AC3, 5.1, 448 Kbps | Дублированный
Аудио #02: 48 kHz, DTS, 5.1, 1510 kbps | Оригинал |
Субтитры: Английские
Автор релиза:

MI

Общее
Уникальный идентификатор : 190551384533216186263929780663096580852 (0x8F5ADC9B1A9549D58092F9FFD6E21AF4)
Полное имя : D:ЗагрузкиGods.of.Egypt.2016.BDRip.720p.ExKinoRay.mkv
Формат : Matroska
Версия формата : Version 2
Размер файла : 6,62 Гбайт
Продолжительность : 2 ч. 7 м.
Общий поток : 7456 Кбит/сек
Название фильма : Gods.of.Egypt.2016.BDRip.720p.ExKinoRay
Дата кодирования : UTC 2016-05-20 07:01:40
Программа кодирования : mkvmerge v5.6.0 ('Kenya Kane') built on May 27 2012 16:44:04
Библиотека кодирования : libebml v1.2.3 + libmatroska v1.3.0
Видео
Идентификатор : 1
Формат : AVC
Формат/Информация : Advanced Video Codec
Профиль формата : High@L4.1
Параметр CABAC формата : Да
Параметр ReFrames формата : 12 кадров
Идентификатор кодека : V_MPEG4/ISO/AVC
Продолжительность : 2 ч. 7 м.
Битрейт : 5351 Кбит/сек
Ширина : 1280 пикселей
Высота : 534 пикселя
Соотношение сторон : 2,40:1
Режим частоты кадров : Постоянный
Частота кадров : 23,976 (24000/1001) кадра/сек
Цветовое пространство : YUV
Субдискретизация насыщенности : 4:2:0
Битовая глубина : 8 бит
Тип развёртки : Прогрессивная
Бит/(Пиксели*Кадры) : 0.326
Размер потока : 4,75 Гбайт (72%)
Библиотека кодирования : x264 core 142 r2431+42 c69a006 tMod [8-bit@all X86_64]
Настройки программы : cabac=1 / ref=12 / deblock=1:-3:-3 / analyse=0x3:0x133 / me=umh / subme=11 / psy=1 / fade_compensate=0.00 / psy_rd=1.05:1.00 / mixed_ref=1 / me_range=32 / chroma_me=1 / trellis=2 / 8x8dct=1 / cqm=0 / deadzone=21,11 / fast_pskip=0 / chroma_qp_offset=-4 / threads=12 / lookahead_threads=2 / sliced_threads=0 / nr=0 / decimate=0 / interlaced=0 / bluray_compat=0 / constrained_intra=0 / fgo=0 / bframes=8 / b_pyramid=2 / b_adapt=2 / b_bias=0 / direct=3 / weightb=1 / open_gop=0 / weightp=2 / keyint=240 / keyint_min=23 / scenecut=40 / intra_refresh=0 / rc_lookahead=60 / rc=crf / mbtree=0 / crf=17.0000 / qcomp=0.60 / qpmin=0:0:0 / qpmax=69:69:69 / qpstep=4 / vbv_maxrate=40000 / vbv_bufsize=30000 / crf_max=0.0 / nal_hrd=none / filler=0 / ip_ratio=1.40 / pb_ratio=1.30 / aq=1:1.00 / aq-sensitivity=10.00 / aq-factor=1.00:1.00:1.00 / aq2=0 / aq3=0
Язык : English
Default : Да
Forced : Нет
Аудио #1
Идентификатор : 2
Формат : AC-3
Формат/Информация : Audio Coding 3
Расширение режима : CM (complete main)
Параметр Endianness формата : Big
Идентификатор кодека : A_AC3
Продолжительность : 2 ч. 7 м.
Вид битрейта : Постоянный
Битрейт : 448 Кбит/сек
Каналы : 6 каналов
Расположение каналов : Front: L C R, Side: L R, LFE
Частота : 48,0 КГц
Частота кадров : 31,250 кадров/сек (1536 spf)
Метод сжатия : С потерями
Размер потока : 407 Мбайт (6%)
Заголовок : Дублированный (Централ Партнершип)
Язык : Russian
Default : Да
Forced : Нет
Аудио #2
Идентификатор : 3
Формат : DTS
Формат/Информация : Digital Theater Systems
Режим : 16
Параметр Endianness формата : Big
Идентификатор кодека : A_DTS
Продолжительность : 2 ч. 7 м.
Вид битрейта : Постоянный
Битрейт : 1509 Кбит/сек
Каналы : 6 каналов
Расположение каналов : Front: L C R, Side: L R, LFE
Частота : 48,0 КГц
Частота кадров : 93,750 кадра/сек (512 spf)
Битовая глубина : 24 бит
Метод сжатия : С потерями
Задержка видео : 11 мс.
Размер потока : 1,34 Гбайт (20%)
Заголовок : Original
Язык : English
Default : Нет
Forced : Нет
Текст
Идентификатор : 4
Формат : UTF-8
Идентификатор кодека : S_TEXT/UTF8
Идентификатор кодека/Информация : UTF-8 Plain Text
Заголовок : Full
Язык : English
Default : Нет
Forced : Нет
Меню
00:00:00.000 : en:00:00:00.000
00:07:08.011 : en:00:07:08.011
00:18:07.545 : en:00:18:07.545
00:23:47.259 : en:00:23:47.259
00:30:11.810 : en:00:30:11.810
00:39:16.521 : en:00:39:16.521
00:46:30.621 : en:00:46:30.621
00:54:46.074 : en:00:54:46.074
01:01:14.129 : en:01:01:14.129
01:09:29.040 : en:01:09:29.040
01:18:03.345 : en:01:18:03.345
01:28:18.251 : en:01:28:18.251
01:36:12.058 : en:01:36:12.058
01:39:14.657 : en:01:39:14.657
01:46:58.328 : en:01:46:58.328
01:52:11.016 : en:01:52:11.016

Скриншоты

[Профиль] [ЛС]
Кто просматривает тему:

Показать сообщения:    

Текущее время: Сегодня 05:01

Часовой пояс: GMT



Вы не можете начинать темы
Вы не можете отвечать на сообщения
Вы не можете редактировать свои сообщения
Вы не можете удалять свои сообщения
Вы не можете голосовать в опросах
Вы не можете прикреплять файлы к сообщениям
Вы не можете скачивать файлы