Богги Крик / Болотный ручей / Boggy Creek (Брайан Т. Джейнс / Brian T. Jaynes) [2010, США, Ужасы, DVDRip] VO (Васька Куролесов)

 
Автор Сообщение

reversefile ®

Пол:

Стаж: 4 года 5 месяцев

Сообщений: 842

Откуда: ReverseFile.org



Награды: Нет

Торрент-статистика

Создавать темы 11-Авг-2014 10:45

[Цитировать]

Богги Крик / Болотный ручей / Boggy Creek
Страна: США
Жанр: Ужасы
Год выпуска: 2010
Продолжительность: 01:27:11
Перевод: Одноголосый закадровый Васька Куролесов по субтитрам МЕГАПЫХАРЬ & Ох! Студия
Cубтитры: нет
Оригинальная аудиодорожка: нет
Режиссер: Брайан Т. Джейнс / Brian T. Jaynes
В ролях: Тексас Бэттл, Мелисса Кэрнелл, Стефани Онор, Дэймон Липари, Шэвон Киркси, Коуди Каллахан, Сара Дженазян, Коуди Кэл, Фредерик Досс, Джули Эриксон
Описание: После смерти отца в страшной аварии милая Дженнифер и её друзья решили проверить его хижину, которая находится в глухом лесу странного места Богги Крика, штат Техас. Приехав на неделю в хижину, отдых Дженнифер и её компании прерывает разозлённый и жестокий монстр из местной легенды, который убивает мужчин и похищает женщин.
Доп. информация:
Kinopoisk
IMDB
Sample
Качество видео: DVDRip
Формат видео: AVI
Видео: Xvid 624x352 23.976fps 990 Kbps
Аудио: MP3 48000Hz stereo 192kbps

MediaInfo

General
Complete name : D:\Boggy_Creek_2010.DVDRip.avi
Format : AVI
Format/Info : Audio Video Interleave
File size : 743 MiB
Duration : 1h 27mn
Overall bit rate : 1 191 Kbps
Writing application : VirtualDubMod 1.5.10.2 (build 2540/release)
Writing library : VirtualDubMod build 2540/release
Video
ID : 0
Format : MPEG-4 Visual
Format profile : Advanced Simple@L5
Format settings, BVOP : Yes
Format settings, QPel : No
Format settings, GMC : No warppoints
Format settings, Matrix : Default (H.263)
Codec ID : XVID
Codec ID/Hint : XviD
Duration : 1h 27mn
Bit rate : 990 Kbps
Width : 624 pixels
Height : 352 pixels
Display aspect ratio : 16:9
Frame rate : 23.976 fps
Color space : YUV
Chroma subsampling : 4:2:0
Bit depth : 8 bits
Scan type : Progressive
Compression mode : Lossy
Bits/(Pixel*Frame) : 0.188
Stream size : 617 MiB (83%)
Writing library : XviD 64
Audio
ID : 1
Format : MPEG Audio
Format version : Version 1
Format profile : Layer 3
Mode : Joint stereo
Codec ID : 55
Codec ID/Hint : MP3
Duration : 1h 27mn
Bit rate mode : Constant
Bit rate : 192 Kbps
Channel count : 2 channels
Sampling rate : 48.0 KHz
Compression mode : Lossy
Stream size : 120 MiB (16%)
Alignment : Aligned on interleaves
Interleave, duration : 42 ms (1.00 video frame)
Interleave, preload duration : 504 ms

Скриншот c названием фильма

Скриншоты

[Профиль] [ЛС]

Создавать темы 06-Авг-2015 23:20 (спустя 11 месяцев 26 дней)

Топик был перенесен из форума Фильмы до 2014 года в форум Фильмы до 2012 года
sergej644
 

Создавать темы 12-Июн-2016 07:53 (спустя 1 год 10 месяцев)

Топик был перенесен из форума Фильмы 2011 года в форум Фильмы 2010 года
Russian Mafia
 
Кто просматривает тему:

Показать сообщения:    

Текущее время: Сегодня 09:51

Часовой пояс: GMT



Вы не можете начинать темы
Вы не можете отвечать на сообщения
Вы не можете редактировать свои сообщения
Вы не можете удалять свои сообщения
Вы не можете голосовать в опросах
Вы не можете прикреплять файлы к сообщениям
Вы не можете скачивать файлы