Богатенький Ричи / Richie Rich (1994) HDRip

 
Автор Сообщение

Russian Mafia ®

Пол:

Стаж: 1 год 8 месяцев

Сообщений: 4256



Награды: 10 (Подробнее)

Mega Seeder 5 (Количество: 1) За внесенный вклад в развитие сайта (Количество: 1) Mega Seeder 2 (Количество: 1)
Торрент-статистика

Создавать темы 20-Окт-2015 18:53

[Цитировать]

Богатенький Ричи / Richie Rich- Страна: США
Жанр: комедия, семейный
Год выпуска: 1994
Продолжительность: 01:34:30
Перевод: Профессиональный (дублированный) Варус Видео
Cубтитры: нет
Режиссер: Дональд Питри / Donald Petrie
В ролях: Маколей Калкин, Джон Ларрокетт, Эдвард Херрманн, Кристин Эберсоул, Джонатан Хайд, Майкл МакШейн, Челси Росс, Марианджела Пино, Стефи Лайнбург, Майкл Маккароне
Описание: Будучи единственным наследником богатейшего состояния мистера Рича, его сынишка Ричи живет в мире немыслимой роскоши. У него есть все, о чем только может мечтать мальчик этого возраста, все, что можно купить за деньги. Но этой тепличной жизни грозит опасность.
Коварный мошенник Лоуренс ван Доу решил прикарманить все состояние Ричей и уже придумал хитроумный план. И пока старшие Ричи путешествуют где-то в море на своей яхте, молодой Ричи с помощью новых друзей и верного пса по кличке Доллар раскрывает замысел и спасает семейное достояние. Для себя же Ричи открывает одну истину — настоящая дружба стоит гораздо больше, чем все его состояние.

Качество видео: HDRip
Формат видео: AVI
Видео кодек: XviD
Аудио кодек: AC3
Видео: 704x400 (1.76:1), 23.976 fps, XviD build 73 ~2012 kbps avg, 0.30 bit/pixel
Аудио: 48 kHz, AC3 Dolby Digital, 2/0 (L,R) ch, ~192 kbps-

Скриншоты

MI

D:Мои рипыBogaten'kij.Richi.1994.HDRip.dexter_lex.avi
General
Complete name : D:Мои рипыBogaten'kij.Richi.1994.HDRip.dexter_lex.avi
Format : AVI
Format/Info : Audio Video Interleave
File size : 1.46 GiB
Duration : 1h 34mn
Overall bit rate : 2 214 Kbps
Writing application : VirtualDubMod 1.5.10.3 | www.virtualdub-fr.org || (build 2550/release)
Writing library : VirtualDubMod build 2550/release
Video #0
ID : 0
Format : MPEG-4 Visual
Format profile : Advanced Simple@L5
Format settings, BVOP : 1
Format settings, QPel : No
Format settings, GMC : No warppoints
Format settings, Matrix : Custom
Codec ID : XVID
Codec ID/Hint : XviD
Duration : 1h 34mn
Bit rate : 2 012 Kbps
Width : 704 pixels
Height : 400 pixels
Display aspect ratio : 16:9
Frame rate : 23.976 fps
Color space : YUV
Chroma subsampling : 4:2:0
Bit depth : 8 bits
Scan type : Progressive
Compression mode : Lossy
Bits/(Pixel*Frame) : 0.298
Stream size : 1.33 GiB (91%)
Writing library : XviD 73
Audio #1
ID : 1
Format : AC-3
Format/Info : Audio Coding 3
Mode extension : CM (complete main)
Codec ID : 2000
Duration : 1h 34mn
Bit rate mode : Constant
Bit rate : 192 Kbps
Channel(s) : 2 channels
Channel positions : Front: L R
Sampling rate : 48.0 KHz
Bit depth : 16 bits
Compression mode : Lossy
Stream size : 130 MiB (9%)
Alignment : Split accross interleaves
Interleave, duration : 42 ms (1.00 video frame)
Interleave, preload duration : 500 ms
[Профиль] [ЛС]
Кто просматривает тему:

Форум Тема Автор Размер
Фильмы (DVD 5/9) «Богатырь» идёт в Марто (Евгений Брюнчугин, Сигизмунд Навроцкий) [1954, СССР, Приключения, шпионский, DVD5] TorrentFilm 2.46 GB
Отечественные мультфильмы Алеша Попович и Тугарин Змей / Добрыня Никитич и Змей Горыныч / Илья Муромец и Соловей Разбойник / Три богатыря и Шамаханская царица / Иван Царевич и Серый Волк (К. Бронзит, И. Максимов, В. Торопчин,... reversefile 7.31 GB
Отечественные мультфильмы Алеша Попович и Тугарин Змей / Добрыня Никитич и Змей Горыныч / Илья Муромец и Соловей Разбойник / Три богатыря и Шамаханская царица / Иван Царевич и Серый Волк / Три богатыря на дальних берегах... reversefile 4.37 GB
Отечественные мультфильмы Богатырша (2015) Blu-ray 1080i | Лицензия достали все 14.75 GB
Отечественные мультфильмы Богатырша (2015) WEB-DL 1080p | iTunes достали все 2.56 GB
Отечественные мультфильмы Богатырша (2015) WEB-DL 720p | iTunes достали все 2.29 GB
Отечественные мультфильмы Богатырша (2015) WEB-DLRip | iTunes достали все 700 MB
Отечественные мультфильмы Богатырша (2015) WEBRip достали все 699 MB
Показать сообщения:    

Текущее время: Сегодня 10:50

Часовой пояс: GMT



Вы не можете начинать темы
Вы не можете отвечать на сообщения
Вы не можете редактировать свои сообщения
Вы не можете удалять свои сообщения
Вы не можете голосовать в опросах
Вы не можете прикреплять файлы к сообщениям
Вы не можете скачивать файлы