Бобры-зомби / Zombeavers (2014) BDRip 720p | P

 
Автор Сообщение

достали все ®

Пол:

Стаж: 1 год 8 месяцев

Сообщений: 6565



Награды: 12 (Подробнее)

Mega Seeder 3 (Количество: 1) Mega Releaser 1 (Количество: 1) Mega Releaser 3 (Количество: 1)
Торрент-статистика

Создавать темы 10-Апр-2015 10:41

[Цитировать]

Информация о фильме
Название: Бобры-зомби
Оригинальное название: Zombeavers
Страна: США
Жанр: ужасы, боевик, комедия
Год выпуска: 2014
Продолжительность: 01:17:33
Перевод: Профессиональный (многоголосый закадровый)
Cубтитры: английские
Оригинальная аудиодорожка: английский
Режиссер: Джордан Рубин / Jordan Rubin
В ролях: Билли Барр, Кортни Палм, Рэйчел Мелвин, Хатч Дано, Джейк Вири, Рекс Линн, Брент Бриско, Роберт Р. Шафер, Питер Гилрой, Лекси Аткинс
Описание: Выходные, запланированные молодежью для развлечений на берегу озера и в расположенном на брегу уютном домике, оборачиваются битвой с нападающими на них бобрами-зомби.

Тип релиза: BDRip 720p
Контейнер: MKV
Видео: MPEG-4 AVC, 7206 Кбит/с, 1280x720, 23,976 fps
Аудио: Rus, AC3, 224 kb/s (2 ch), 48 kHz
Аудио 2: Eng, DTS, 1510 kb/s (6 ch), 48 kHz
Формат субтитров: softsub (SRT)

MediaInfo

Format : Matroska
Format version : Version 4 / Version 2
File size : 5.16 GiB
Duration : 1h 21mn
Overall bit rate : 9 120 Kbps
Movie name : Бобры-зомби. (Tonik)
Encoded date : UTC 2015-04-10 08:32:53
Writing application : mkvmerge v7.1.0 ('Good Love') 64bit built on Jul 27 2014 13:06:55
Writing library : libebml v1.3.0 + libmatroska v1.4.1
_STATISTICS_WRITING_APP : mkvmerge v7.1.0 ('Good Love') 64bit built on Jul 27 2014 13:06:55
_STATISTICS_WRITING_DATE_UTC : 2015-04-10 08:32:53
_STATISTICS_TAGS : BPS DURATION NUMBER_OF_FRAMES NUMBER_OF_BYTES
DURATION : 01:17:36.470000000
NUMBER_OF_FRAMES : 436544
NUMBER_OF_BYTES : 878326528
Video
ID : 1
Format : AVC
Format/Info : Advanced Video Codec
Format profile : High@L4.1
Format settings, CABAC : Yes
Format settings, ReFrames : 9 frames
Codec ID : V_MPEG4/ISO/AVC
Duration : 1h 21mn
Bit rate : 7 206 Kbps
Width : 1 280 pixels
Height : 720 pixels
Display aspect ratio : 16:9
Frame rate mode : Constant
Frame rate : 24.000 fps
Color space : YUV
Chroma subsampling : 4:2:0
Bit depth : 8 bits
Scan type : Progressive
Bits/(Pixel*Frame) : 0.326
Stream size : 4.08 GiB (79%)
Writing library : x264 core 142 r2479kMod dd79a61
Encoding settings : cabac=1 / ref=9 / deblock=1:-3:-3 / analyse=0x3:0x133 / me=umh / subme=10 / psy=1 / fade_compensate=0.00 / psy_rd=1.08:0.00 / mixed_ref=1 / me_range=24 / chroma_me=1 / trellis=2 / 8x8dct=1 / cqm=0 / deadzone=21,11 / fast_pskip=1 / chroma_qp_offset=-2 / threads=6 / lookahead_threads=1 / sliced_threads=0 / nr=0 / decimate=1 / interlaced=0 / bluray_compat=0 / constrained_intra=0 / fgo=0 / bframes=11 / b_pyramid=2 / b_adapt=2 / b_bias=0 / direct=3 / weightb=1 / open_gop=0 / weightp=2 / keyint=250 / keyint_min=24 / scenecut=40 / intra_refresh=0 / rc=crf / mbtree=0 / crf=17.3000 / qcomp=0.65 / qpmin=0 / qpmax=69 / qpstep=4 / ip_ratio=1.30 / pb_ratio=1.20 / aq=3:0.68
Language : English
Default : Yes
Forced : No
Matrix coefficients : BT.709
_STATISTICS_WRITING_APP : mkvmerge v7.1.0 ('Good Love') 64bit built on Jul 27 2014 13:06:55
_STATISTICS_WRITING_DATE_UTC : 2015-04-10 08:32:53
_STATISTICS_TAGS : BPS DURATION NUMBER_OF_FRAMES NUMBER_OF_BYTES
DURATION : 01:21:00.000000000
NUMBER_OF_FRAMES : 116640
NUMBER_OF_BYTES : 4530257043
Audio #1
ID : 2
Format : AC-3
Format/Info : Audio Coding 3
Mode extension : CM (complete main)
Format settings, Endianness : Big
Codec ID : A_AC3
Duration : 1h 21mn
Bit rate mode : Constant
Bit rate : 224 Kbps
Channel(s) : 2 channels
Channel positions : Front: L R
Sampling rate : 48.0 KHz
Bit depth : 16 bits
Compression mode : Lossy
Stream size : 130 MiB (2%)
Language : Russian
Default : Yes
Forced : No
Audio #2
ID : 3
Format : DTS
Format/Info : Digital Theater Systems
Mode : 16
Format settings, Endianness : Big
Codec ID : A_DTS
Duration : 1h 21mn
Bit rate mode : Constant
Bit rate : 1 509 Kbps
Channel(s) : 6 channels
Channel positions : Front: L C R, Side: L R, LFE
Sampling rate : 48.0 KHz
Bit depth : 24 bits
Compression mode : Lossy
Stream size : 874 MiB (17%)
Language : English
Default : No
Forced : No
Text
ID : 4
Format : UTF-8
Codec ID : S_TEXT/UTF8
Codec ID/Info : UTF-8 Plain Text
Language : English
Default : No
Forced : No
Menu
00:00:00.000 : en:00:00:00.000
00:04:47.458 : en:00:04:47.458
00:08:34.708 : en:00:08:34.708
00:18:10.083 : en:00:18:10.083
00:26:26.458 : en:00:26:26.458
00:32:32.750 : en:00:32:32.750
00:38:53.125 : en:00:38:53.125
00:44:14.500 : en:00:44:14.500
00:50:05.708 : en:00:50:05.708
00:59:20.917 : en:00:59:20.917
01:07:36.458 : en:01:07:36.458
01:10:51.417 : en:01:10:51.417

Скриншоты

[Профиль] [ЛС]
Показать сообщения:    

Текущее время: Сегодня 18:14

Часовой пояс: GMT



Вы не можете начинать темы
Вы не можете отвечать на сообщения
Вы не можете редактировать свои сообщения
Вы не можете удалять свои сообщения
Вы не можете голосовать в опросах
Вы не можете прикреплять файлы к сообщениям
Вы не можете скачивать файлы