Бобро поржаловать! / Bienvenue chez les Ch\'tis (Дэни Бун / Dany Boon) [2008, Франция, Комедия, HDRip] Dub

 
Автор Сообщение

TorrentFilm ®

Пол:

Стаж: 2 года

Сообщений: 7741



Награды: Нет

Торрент-статистика

Создавать темы 26-Фев-2016 00:08

[Цитировать]

-Бобро поржаловать! / Bienvenue chez les Ch'tis
«Уж лучше вы к нам»- -Страна: Франция
Жанр: Комедия
Год выпуска: 2008
Продолжительность: 01:46:00-Перевод: Профессиональный (дублированный) R5-Cубтитры: нет
Оригинальная аудиодорожка: нет-Режиссер: Дэни Бун / Dany Boon-В ролях: Кад Мерад, Дэни Бун, Зоэ Феликс, Лоренцо Осилья-Форе, Энн Маривин, Филипп Дюкен, Гай Леклюиз, Лайн Рено, Мишель Галабрю, Стефан Фрейсс-Описание: Филипп Абрамс, начальник почтового отделения на юге Франции в Салон-де-Прованс делает всё для того, чтобы быть переведённым по службе в Кассис, райский уголок близ Марселя. Однако все его старания и мечты идут крахом, когда за мелкое служебное нарушение он получает дисциплинарный перевод на два года в Берг на Севере, близ Дюнкерка.
Для людей с Юга Франции, наполненных стереотипами, Север — это ужас, полярный регион, населённый грубыми существами, разговаривающими на непонятном языке. К своему великому изумлению, Филипп Абрамс обнаруживает там очаровательное место, тёплую команду, гостеприимных людей и приобретает новых друзей.- - -Качество видео: HDRip
Формат видео: AVI-Видео: XviD, 720x304 (2.35:1), 23.976 fps, ~1500 kbps avg, 0.28 bit/pixel
Аудио: 48 kHz, AC3 Dolby Digital, 3/2 (L,C,R,l,r) + LFE ch, ~448 kbps avg-

MediaInfo

Complete name : D:\РАЗДАЧИ\Bienvenue chez les Ch'tis (2008) HDRip.avi
Format : AVI
Format/Info : Audio Video Interleave
File size : 1.45 GiB
Duration : 1h 46mn
Overall bit rate : 1 955 Kbps
Writing application : VirtualDubMod 1.5.10.2 (build 2540/release)
Writing library : VirtualDubMod build 2540/release
Video
ID : 0
Format : MPEG-4 Visual
Format profile : Advanced Simple@L5
Format settings, BVOP : 1
Format settings, QPel : No
Format settings, GMC : No warppoints
Format settings, Matrix : Custom
Codec ID : XVID
Codec ID/Hint : XviD
Duration : 1h 46mn
Bit rate : 1 498 Kbps
Width : 720 pixels
Height : 304 pixels
Display aspect ratio : 2.35:1
Frame rate : 24.000 fps
Color space : YUV
Chroma subsampling : 4:2:0
Bit depth : 8 bits
Scan type : Progressive
Compression mode : Lossy
Bits/(Pixel*Frame) : 0.285
Stream size : 1.11 GiB (77%)
Writing library : XviD 73
Audio
ID : 1
Format : AC-3
Format/Info : Audio Coding 3
Mode extension : CM (complete main)
Format settings, Endianness : Big
Codec ID : 2000
Duration : 1h 46mn
Bit rate mode : Constant
Bit rate : 448 Kbps
Channel(s) : 6 channels
Channel positions : Front: L C R, Side: L R, LFE
Sampling rate : 48.0 KHz
Bit depth : 16 bits
Compression mode : Lossy
Stream size : 340 MiB (23%)
Alignment : Split accross interleaves
Interleave, duration : 42 ms (1.00 video frame)
Interleave, preload duration : 500 ms

Скриншот c названием фильма

Скриншоты

[Профиль] [ЛС]

Создавать темы 12-Июн-2016 08:50 (спустя 3 месяца 15 дней)

Топик был перенесен из форума Фильмы 2011 года в форум Фильмы 2006-2008 года
Russian Mafia
 
Показать сообщения:    

Текущее время: Сегодня 00:21

Часовой пояс: GMT



Вы не можете начинать темы
Вы не можете отвечать на сообщения
Вы не можете редактировать свои сообщения
Вы не можете удалять свои сообщения
Вы не можете голосовать в опросах
Вы не можете прикреплять файлы к сообщениям
Вы не можете скачивать файлы