Бобро поржаловать! / Bienvenue chez les Ch\'tis (Дэни Бун / Dany Boon) [2008, Франция, Комедия, BDRip] Dub (Вольга) + DVO

 
Автор Сообщение

TorrentFilm ®

Пол:

Стаж: 2 года

Сообщений: 7741



Награды: Нет

Торрент-статистика

Создавать темы 14-Янв-2015 00:00

[Цитировать]

Бобро поржаловать! / Bienvenue chez les Ch'tis
Страна: Франция
Жанр: Комедия
Год выпуска: 2008
Продолжительность: 01:46:01
Перевод: Профессиональный (дублированный) Вольга
Перевод 2: Профессиональный (двухголосый закадровый)
Cубтитры: нет
Режиссер: Дэни Бун / Dany Boon
В ролях: Кад Мерад, Дани Бун, Зои Феликс, Энн Маривин, Филипп Дюкен, Гай Леклюиз, Лин Рено, Мишель Галабрю, Стефан Фрейсс, Седрик Мадьяри, Жан-Марк Вотье, Патрик Коэн, Гийом Моранд, Зинедин Суалем, Христоф Россигнон, Яэль Бун, Женни Клев, Жан-Христоф Гербет, Фрэнк Андриё, Фред Персонн, Александр Карьер, Жером Коммандёр, Патрик Боссо
Описание: Филипп Абрамс, начальник почтового отделения на юге Франции в Салон-де-Прованс делает всё для того, чтобы быть переведённым по службе в Кассис, райский уголок близ Марселя. Однако все его старания и мечты идут крахом, когда за мелкое служебное нарушение он получает дисциплинарный перевод на два года в Берг на Севере, близ Дюнкерка. Для людей с Юга Франции, наполненных стереотипами, Север - это ужас, полярный регион, населённый грубыми существами, разговаривающими на непонятном языке. К своему великому изумлению, Филипп Абрамс обнаруживает там очаровательное место, тёплую команду, гостеприимных людей и приобретает новых друзей.

Качество видео: BDRip [Blu-ray Remux (1080p) от HDClub]
Формат видео: AVI
Видео: XviD, 2038 Кбит/с, 720x304 (2.35:1), 24 кадр/с
Аудио #1: Русский, Dolby AC3, 48000 Гц, 448 Кбит/с, 6 каналов (5.1) - DUB, R5 [Вольга]
Аудио #2: Русский, Dolby AC3, 48000 Гц, 448 Кбит/с, 6 каналов (5.1) - DVO

Автор рипа - ivandubskoj

Знаете ли, что...

• Собрав в первую неделю проката рекордные 25,5 млн. евро, фильм обошел по этому показателю предыдущего рекордсмена — картину «Веселые и загорелые» (2006).
• Во Франции фильм посмотрели 20,5 млн. человек, что также стало рекордом со времен фильма «Большая прогулка» (1966) с 17,3 млн. зрителей.
• Режиссёр фильма Дэни Бун сыграл одну из главных ролей.

MediaInfo

General
Complete name : Bobro.porzhalovat'.2008.Dual.BDRip.avi
Format : AVI
Format/Info : Audio Video Interleave
Format profile : OpenDML
File size : 2.18 GiB
Duration : 1h 46mn
Overall bit rate : 2 947 Kbps
Movie name : Бобро поржаловать! / Bienvenue chez les Ch'tis (2008) BDRip
Genre : Комедия
Recorded date : 12.01.2015
Writing application : VirtualDubMod 1.5.10.3 (build 2550/release)
Writing library : VirtualDubMod build 2550/release
Copyright : rip by ivandubskoj
Video
ID : 0
Format : MPEG-4 Visual
Format profile : Advanced Simple@L5
Format settings, BVOP : 1
Format settings, QPel : No
Format settings, GMC : No warppoints
Format settings, Matrix : Custom
Codec ID : XVID
Codec ID/Hint : XviD
Duration : 1h 46mn
Bit rate : 2 038 Kbps
Width : 720 pixels
Height : 304 pixels
Display aspect ratio : 2.35:1
Frame rate : 24.000 fps
Color space : YUV
Chroma subsampling : 4:2:0
Bit depth : 8 bits
Scan type : Progressive
Compression mode : Lossy
Bits/(Pixel*Frame) : 0.388
Stream size : 1.51 GiB (69%)
Writing library : XviD 73
Audio #1
ID : 1
Format : AC-3
Format/Info : Audio Coding 3
Mode extension : CM (complete main)
Codec ID : 2000
Duration : 1h 46mn
Bit rate mode : Constant
Bit rate : 448 Kbps
Channel(s) : 6 channels
Channel positions : Front: L C R, Side: L R, LFE
Sampling rate : 48.0 KHz
Bit depth : 16 bits
Compression mode : Lossy
Delay relative to video : 22ms
Stream size : 340 MiB (15%)
Alignment : Split accross interleaves
Interleave, duration : 64 ms (1.54 video frames)
Interleave, preload duration : 500 ms
Title : Russian, DUB [Вольга]
Audio #2
ID : 2
Format : AC-3
Format/Info : Audio Coding 3
Mode extension : CM (complete main)
Codec ID : 2000
Duration : 1h 46mn
Bit rate mode : Constant
Bit rate : 448 Kbps
Channel(s) : 6 channels
Channel positions : Front: L C R, Side: L R, LFE
Sampling rate : 48.0 KHz
Bit depth : 16 bits
Compression mode : Lossy
Stream size : 340 MiB (15%)
Alignment : Split accross interleaves
Interleave, duration : 64 ms (1.54 video frames)
Interleave, preload duration : 500 ms
Title : Russian, DVO

Скриншот c названием фильма

Скриншоты

[Профиль] [ЛС]

Создавать темы 06-Авг-2015 22:48 (спустя 6 месяцев 23 дня)

Топик был перенесен из форума Фильмы до 2014 года в форум Фильмы до 2012 года
sergej644
 

Создавать темы 12-Июн-2016 08:51 (спустя 1 год 4 месяца)

Топик был перенесен из форума Фильмы 2011 года в форум Фильмы 2006-2008 года
Russian Mafia
 
Показать сообщения:    

Текущее время: Сегодня 22:33

Часовой пояс: GMT



Вы не можете начинать темы
Вы не можете отвечать на сообщения
Вы не можете редактировать свои сообщения
Вы не можете удалять свои сообщения
Вы не можете голосовать в опросах
Вы не можете прикреплять файлы к сообщениям
Вы не можете скачивать файлы