Бобби Фишер Против Всего Мира / Bobby Fischer Against the World (Лиз Гарбус / Liz Garbus) [2011, Документальный, HDTV 720p] MVO (Первый Канал)

 
Автор Сообщение

TorrentFilm ®

Пол:

Стаж: 2 года

Сообщений: 7741



Награды: Нет

Торрент-статистика

Создавать темы 28-Июл-2015 00:08

[Цитировать]

Бобби Фишер Против Всего Мира / Bobby Fischer Against the World- Год выпуска: 2011
Страна: США | Великобритания
Студия: HBO Documentary Films | LM Media Production | Moxie Firecracker Films
Жанр: Документальный
Продолжительность: 1:28:53
Перевод: Профессиональный (многоголосый закадровый) | Первый Канал
Режиссер: Лиз Гарбус / Liz Garbus-Описание: Первая полнометражная попытка исследовать жизнь Бобби Фишера - человека, которого многие называют самым гениальным шахматистом всех времен и народов. Приняв участие в своем первом турнире в десять лет, Фишер с годами все больше и больше отдалялся от окружающего его мира, уделяя все свое внимание любимому занятию. Фишер выигрывал все состязания, в которых участвовал, и все время становился «самым» - самым молодым чемпионом США, самым молодым международным гроссмейстером.- -Автор рипа: lrn
Автор записи: Alexin29
Сэмпл: sendfile-Тип релиза: HDTV 720p
Контейнер: MKV
Видео: 1280x720 (16:9), 25,000 fps, H264, ~4000 kbps avg, ~0.174 bit/pixel
Аудио: 48 kHz, AC3 Dolby Digital, 3/2 (L,C,R,l,r) + LFE ch, ~384.00 kbps avg-

MediaInfo

GeneralUnique ID : 181798560335115620329466908479907841080 (0x88C5210DFB3B7FC08F6E013E1D8A4438)Complete name : E:\uTorrent.Temp\Temp\Bobby.Fischer.Against.the.World.2011.HDTV.720p.x264-RUS-lrn.mkvFormat : MatroskaFormat version : Version 4 / Version 2File size : 2.72 GiBDuration : 1h 28mnOverall bit rate : 4 386 KbpsMovie name : Bobby.Fischer.Against.the.World.2011.HDTV.720p.x264-RUS-lrnEncoded date : UTC 2010-02-22 21:41:31Writing application : mkvmerge v5.9.0 ('On The Loose') built on Dec 9 2012 15:37:01Writing library : libebml v1.3.0 + libmatroska v1.4.0DURATION : 01:28:53.560000000NUMBER_OF_FRAMES : 133339NUMBER_OF_BYTES : 2666870097_STATISTICS_WRITING_APP : mkvmerge v7.7.0 ('Six Voices') 32bit built on Feb 28 2015 23:23:00_STATISTICS_WRITING_DATE_UT : 2015-07-25 16:52:12_STATISTICS_TAGS : BPS DURATION NUMBER_OF_FRAMES NUMBER_OF_BYTES
VideoID : 1Format : AVCFormat/Info : Advanced Video CodecFormat profile : High@L4.1Format settings, CABAC : YesFormat settings, ReFrames : 8 framesCodec ID : V_MPEG4/ISO/AVCDuration : 1h 28mnBit rate : 4 000 KbpsWidth : 1 280 pixelsHeight : 720 pixelsDisplay aspect ratio : 16:9Frame rate mode : ConstantFrame rate : 25.000 fpsColor space : YUVChroma subsampling : 4:2:0Bit depth : 8 bitsScan type : ProgressiveBits/(Pixel*Frame) : 0.174Stream size : 2.43 GiB (89%)Writing library : x264 core 146 r2538 121396cEncoding settings : cabac=1 / ref=8 / deblock=1:-3:-3 / analyse=0x3:0x133 / me=umh / subme=9 / psy=1 / psy_rd=1.00:0.00 / mixed_ref=1 / me_range=32 / chroma_me=1 / trellis=2 / 8x8dct=1 / cqm=0 / deadzone=21,11 / fast_pskip=1 / chroma_qp_offset=-2 / threads=12 / lookahead_threads=2 / sliced_threads=0 / nr=0 / decimate=1 / interlaced=0 / bluray_compat=0 / constrained_intra=0 / bframes=8 / b_pyramid=2 / b_adapt=2 / b_bias=0 / direct=3 / weightb=1 / open_gop=0 / weightp=2 / keyint=250 / keyint_min=25 / scenecut=40 / intra_refresh=0 / rc_lookahead=50 / rc=2pass / mbtree=1 / bitrate=4000 / ratetol=1.0 / qcomp=0.60 / qpmin=0 / qpmax=69 / qpstep=4 / cplxblur=20.0 / qblur=0.5 / vbv_maxrate=62500 / vbv_bufsize=78125 / nal_hrd=none / filler=0 / ip_ratio=1.40 / aq=1:1.00Default : YesForced : No
AudioID : 2Format : AC-3Format/Info : Audio Coding 3Mode extension : CM (complete main)Format settings, Endianness : BigCodec ID : A_AC3Duration : 1h 28mnBit rate mode : ConstantBit rate : 384 KbpsChannel(s) : 6 channelsChannel positions : Front: L C R, Side: L R, LFESampling rate : 48.0 KHzCompression mode : LossyDelay relative to video : 200msStream size : 244 MiB (9%)Language : RussianDefault : YesForced : No

x264 log

raw [info]: 1280x720p 1:1 @ 25/1 fps (cfr)x264 [info]: using SAR=1/1x264 [info]: using cpu capabilities: MMX2 SSE2Fast SSSE3 SSE4.2 AVXx264 [info]: profile High, level 4.1x264 [info]: frame I:1029 Avg QP:12.37 size:118531x264 [info]: frame P:34227 Avg QP:14.95 size: 36807x264 [info]: frame B:98083 Avg QP:17.21 size: 13102x264 [info]: consecutive B-frames: 2.3% 4.4% 3.8% 70.8% 5.3% 6.1% 1.5% 5.1% 0.8%x264 [info]: mb I I16..4: 5.1% 81.7% 13.2%x264 [info]: mb P I16..4: 1.6% 15.8% 1.1% P16..4: 41.4% 19.8% 11.4% 0.3% 0.1% skip: 8.6%x264 [info]: mb B I16..4: 0.2% 2.3% 0.1% B16..8: 32.0% 11.8% 2.4% direct:10.6% skip:40.7% L0:42.1% L1:46.0% BI:11.9%x264 [info]: 8x8 transform intra:86.4% inter:61.6%x264 [info]: direct mvs spatial:98.9% temporal:1.1%x264 [info]: coded y,uvDC,uvAC intra: 87.0% 69.4% 42.6% inter: 32.0% 29.4% 2.7%x264 [info]: i16 v,h,dc,p: 28% 15% 5% 52%x264 [info]: i8 v,h,dc,ddl,ddr,vr,hd,vl,hu: 14% 14% 8% 7% 10% 12% 11% 11% 13%x264 [info]: i4 v,h,dc,ddl,ddr,vr,hd,vl,hu: 13% 12% 5% 8% 14% 14% 13% 10% 11%x264 [info]: i8c dc,h,v,p: 51% 21% 15% 13%x264 [info]: Weighted P-Frames: Y:6.5% UV:1.8%x264 [info]: ref P L0: 55.9% 7.8% 14.8% 6.2% 4.9% 4.0% 3.6% 2.6% 0.3% 0.0%x264 [info]: ref B L0: 77.5% 10.9% 5.0% 2.6% 2.1% 1.3% 0.7%x264 [info]: ref B L1: 95.6% 4.4%x264 [info]: kb/s:4000.13encoded 133339 frames, 14.78 fps, 4000.13 kb/s

Скриншоты

-
[Профиль] [ЛС]
Показать сообщения:    

Текущее время: Сегодня 20:46

Часовой пояс: GMT



Вы не можете начинать темы
Вы не можете отвечать на сообщения
Вы не можете редактировать свои сообщения
Вы не можете удалять свои сообщения
Вы не можете голосовать в опросах
Вы не можете прикреплять файлы к сообщениям
Вы не можете скачивать файлы