Блэк энд уайт / Белое и чёрное / Black & White (Леонид Амальрик, Иван Иванов-Вано) [1932, короткометражный мультфильм, DVDRip] Eng hardsub

 
Автор Сообщение

TorrentFilm ®

Пол:

Стаж: 2 года

Сообщений: 7741



Награды: Нет

Торрент-статистика

Создавать темы 10-Окт-2015 00:11

[Цитировать]

Блэк энд уайт / Белое и чёрное / Black & White-Страна: СССР
Жанр: короткометражный мультфильм
Продолжительность: 00:02:28
Год выпуска: 1932
Русские субтитры: нет-Режиссёры: Леонид Амальрик, Иван Иванов-Вано- | Релиз: -Описание: По мотивам одноимённого стихотворения Владимира Маяковского.-Качество: DVDRip
Формат: AVI
Видео: 624x480 (1.30:1), 25 fps, XviD MPEG-4 ~2242 kbps avg, 0.30 bit/pixel
Аудио: 48 kHz, AC3 Dolby Digital, 2/0 (L,R) ch, ~224 kbps
Субтитры: английские вшитые (hardsub)

MediaInfo

GeneralComplete name : Black & White.1932.XviD.AC3-rutracker.aviFormat : AVIFormat/Info : Audio Video InterleaveFile size : 44.0 MiBDuration : 2mn 28sOverall bit rate : 2 477 KbpsMovie name : Black & White.1932.XviD.AC3-rutrackerWriting application : VirtualDubMod 1.5.10.2 (build 2542/release)Comment : РГ Мультфильмы / Rutracker.org
VideoID : 0Format : MPEG-4 VisualFormat profile : Advanced Simple@L5Format settings, BVOP : 2Format settings, QPel : NoFormat settings, GMC : No warppointsFormat settings, Matrix : CustomCodec ID : XVIDCodec ID/Hint : XviDDuration : 2mn 28sBit rate : 2 242 KbpsWidth : 624 pixelsHeight : 480 pixelsDisplay aspect ratio : 4:3Frame rate : 25.000 fpsColor space : YUVChroma subsampling : 4:2:0Bit depth : 8 bitsScan type : ProgressiveCompression mode : LossyBits/(Pixel*Frame) : 0.299Stream size : 39.8 MiB (91%)Writing library : XviD 65
AudioID : 1Format : AC-3Format/Info : Audio Coding 3Mode extension : CM (complete main)Format settings, Endianness : BigCodec ID : 2000Duration : 2mn 28sBit rate mode : ConstantBit rate : 224 KbpsChannel(s) : 2 channelsChannel positions : Front: L RSampling rate : 48.0 KHzCompression mode : LossyStream size : 3.98 MiB (9%)Alignment : Split accross interleavesInterleave, duration : 40 ms (1.00 video frame)Interleave, preload duration : 500 ms

Скриншоты

[Профиль] [ЛС]
Кто просматривает тему:

Показать сообщения:    

Текущее время: Сегодня 08:50

Часовой пояс: GMT



Вы не можете начинать темы
Вы не можете отвечать на сообщения
Вы не можете редактировать свои сообщения
Вы не можете удалять свои сообщения
Вы не можете голосовать в опросах
Вы не можете прикреплять файлы к сообщениям
Вы не можете скачивать файлы