Блэкторн / Blackthorn (2011) BDRip 1080p | P2, L2, A

 
Автор Сообщение

Russian Mafia ®

Пол:

Стаж: 1 год 8 месяцев

Сообщений: 4247



Награды: 10 (Подробнее)

Top Releaser 3 (Количество: 1) За внесенный вклад в развитие сайта (Количество: 1) Mega Seeder 5 (Количество: 1)
Торрент-статистика

Создавать темы 07-Авг-2016 05:20

[Цитировать]

Название: Блэкторн
Оригинальное название: Blackthorn
Год выхода: 2011
Страна: Испания, Франция, Боливия, Великобритания
Студия: Ariane Mararía Films, Arcadia Motion Pictures, Quickfire Films
Продолжительность: 1:42:28
Жанр: драма, вестерн, ...
Режиссер: Матео Хиль
В ролях: Сэм Шепард, Эдуардо Норьега, Стивен Ри, Магали Сольер, Доминик МакЭллигот, Николай Костер-Валдау, Падрейк Делейни, Дэниэл Агирр, Луис Бредоу, Фернандо Гамарра, Кристиан Меркадо, ...
Перевод:
- Профессиональный (двуголосый, закадровый) Elrom
- Любительский (двухголосый, закадровый) ?
- Авторский (одноголосый, закадровый) Алексеев Антон Васильевич
- Субтитры
О фильме: Чудом выживший в перестрелке Кэссиди доживает свои деньки в пыльной Боливии. Осталось ему недолго, и старик решается на последнее ограбление, чтобы заработать денег на возвращение в родные Штаты…

Кодек: x264
Качество: BDRip 1080p
Видео: 1916x816, 11000 kbps, 24 fps
Аудио #1: AC-3, 2 ch, 224 kbps (Rus) - DVO Elrom
Аудио #2: AC-3, 6 ch, 384 kbps (Rus) - DVOL
Аудио #3: AC-3, 6 ch, 448 kbps (Rus) - AVO Алексеев Антон Васильевич
Аудио #4: AC-3, 6 ch, 448 kbps (Eng)
Субтитры: Русские (SDH), Английские
Спасибо за исходник

MediaInfo

x264 [info]: frame I:880 Avg QP:17.52 size:251752
x264 [info]: frame P:30085 Avg QP:20.20 size:107508
x264 [info]: frame B:116396 Avg QP:22.13 size: 42824
x264 [info]: consecutive B-frames: 2.2% 3.5% 5.4% 9.3% 11.5% 53.4% 6.2% 0.6% 4.0% 1.0% 1.9% 0.4% 0.6%
Общее
Уникальный идентификатор : 233480171404961831494545364898488967174 (0xAFA6A535D9CE3953ABB0366744BEE006)
Полное имя : Блэкторн (Blackthorn) 2011 BDRip 1080p.mkv
Формат : Matroska
Версия формата : Version 2
Размер файла : 8,94 Гбайт
Продолжительность : 1 ч. 42 м.
Общий поток : 12,5 Мбит/сек
Дата кодирования : UTC 2016-08-06 21:39:54
Программа кодирования : mkvmerge v4.0.0 ('The Stars were mine') сборка от Jun 6 2010 16:18:42
Библиотека кодирования : libebml v1.0.0 + libmatroska v1.0.0
Видео
Идентификатор : 1
Формат : AVC
Формат/Информация : Advanced Video Codec
Профиль формата : High@L4.1
Параметр CABAC формата : Да
Параметр ReFrames формата : 5 кадров
Идентификатор кодека : V_MPEG4/ISO/AVC
Продолжительность : 1 ч. 42 м.
Битрейт : 11,0 Мбит/сек
Ширина : 1916 пикселей
Высота : 816 пикселей
Соотношение сторон : 2,35:1
Режим частоты кадров : Постоянный
Частота кадров : 24,000 кадра/сек
Цветовое пространство : YUV
Субдискретизация насыщенности : 4:2:0
Битовая глубина : 8 бит
Тип развёртки : Прогрессивная
Бит/(Пиксели*Кадры) : 0.293
Размер потока : 7,68 Гбайт (86%)
Библиотека кодирования : x264 core 146 r2538 121396c
Настройки программы : cabac=1 / ref=5 / deblock=1:-3:-3 / analyse=0x3:0x133 / me=umh / subme=11 / psy=1 / psy_rd=1.00:0.00 / mixed_ref=1 / me_range=32 / chroma_me=1 / trellis=2 / 8x8dct=1 / cqm=0 / deadzone=21,11 / fast_pskip=0 / chroma_qp_offset=-2 / threads=12 / lookahead_threads=2 / sliced_threads=0 / nr=0 / decimate=0 / interlaced=0 / bluray_compat=0 / constrained_intra=0 / bframes=12 / b_pyramid=2 / b_adapt=2 / b_bias=0 / direct=3 / weightb=1 / open_gop=0 / weightp=2 / keyint=240 / keyint_min=24 / scenecut=40 / intra_refresh=0 / rc=2pass / mbtree=0 / bitrate=11000 / ratetol=1.0 / qcomp=0.60 / qpmin=0 / qpmax=69 / qpstep=4 / cplxblur=20.0 / qblur=0.5 / ip_ratio=1.40 / pb_ratio=1.30 / aq=1:0.80
Язык : English
Default : Нет
Forced : Нет
Аудио #1
Идентификатор : 2
Формат : AC-3
Формат/Информация : Audio Coding 3
Расширение режима : CM (complete main)
Параметр Endianness формата : Big
Идентификатор кодека : A_AC3
Продолжительность : 1 ч. 42 м.
Вид битрейта : Постоянный
Битрейт : 224 Кбит/сек
Каналы : 2 канала
Расположение каналов : Front: L R
Частота : 48,0 КГц
Частота кадров : 31,250 кадров/сек (1536 spf)
Метод сжатия : С потерями
Размер потока : 164 Мбайт (2%)
Заголовок : DVO студия Elrom
Язык : Russian
Default : Нет
Forced : Нет
Аудио #2
Идентификатор : 3
Формат : AC-3
Формат/Информация : Audio Coding 3
Расширение режима : CM (complete main)
Параметр Endianness формата : Big
Идентификатор кодека : A_AC3
Продолжительность : 1 ч. 42 м.
Вид битрейта : Постоянный
Битрейт : 384 Кбит/сек
Каналы : 6 каналов
Расположение каналов : Front: L C R, Side: L R, LFE
Частота : 48,0 КГц
Частота кадров : 31,250 кадров/сек (1536 spf)
Метод сжатия : С потерями
Размер потока : 281 Мбайт (3%)
Заголовок : DVOL
Язык : Russian
Default : Нет
Forced : Нет
Аудио #3
Идентификатор : 4
Формат : AC-3
Формат/Информация : Audio Coding 3
Расширение режима : CM (complete main)
Параметр Endianness формата : Big
Идентификатор кодека : A_AC3
Продолжительность : 1 ч. 42 м.
Вид битрейта : Постоянный
Битрейт : 448 Кбит/сек
Каналы : 6 каналов
Расположение каналов : Front: L C R, Side: L R, LFE
Частота : 48,0 КГц
Частота кадров : 31,250 кадров/сек (1536 spf)
Метод сжатия : С потерями
Размер потока : 328 Мбайт (4%)
Заголовок : Антон Алексеев
Язык : Russian
Default : Нет
Forced : Нет
Аудио #4
Идентификатор : 5
Формат : AC-3
Формат/Информация : Audio Coding 3
Расширение режима : CM (complete main)
Параметр Endianness формата : Big
Идентификатор кодека : A_AC3
Продолжительность : 1 ч. 42 м.
Вид битрейта : Постоянный
Битрейт : 448 Кбит/сек
Каналы : 6 каналов
Расположение каналов : Front: L C R, Side: L R, LFE
Частота : 48,0 КГц
Частота кадров : 31,250 кадров/сек (1536 spf)
Метод сжатия : С потерями
Размер потока : 328 Мбайт (4%)
Язык : English
Default : Нет
Forced : Нет
Текст #1
Идентификатор : 6
Формат : UTF-8
Идентификатор кодека : S_TEXT/UTF8
Идентификатор кодека/Информация : UTF-8 Plain Text
Заголовок : SDH
Язык : Russian
Default : Нет
Forced : Нет
Текст #2
Идентификатор : 7
Формат : UTF-8
Идентификатор кодека : S_TEXT/UTF8
Идентификатор кодека/Информация : UTF-8 Plain Text
Язык : English
Default : Нет
Forced : Нет

[Профиль] [ЛС]
Кто просматривает тему:

Форум Тема Автор Размер
Фильмы (HD Rips | 720p, 1080p) Блэкторн / Blackthorn (2011) BDRip 720p от Leonardo and Scarabey sergej644 3.38 GB
Показать сообщения:    

Текущее время: Сегодня 16:33

Часовой пояс: GMT



Вы не можете начинать темы
Вы не можете отвечать на сообщения
Вы не можете редактировать свои сообщения
Вы не можете удалять свои сообщения
Вы не можете голосовать в опросах
Вы не можете прикреплять файлы к сообщениям
Вы не можете скачивать файлы