Блондинка за углом (Владимир Бортко)[1984, комедия, мелодрама, DVDRip]

 
Автор Сообщение

sergej644 ®

Пол:

Стаж: 4 года 11 месяцев

Сообщений: 6046

Откуда: Soviet Union



Награды: Нет

Торрент-статистика

Создавать темы 08-Окт-2014 15:38

[Цитировать]

--Блондинка за углом
Страна: СССР
Производство: Ленфильм
Жанр: комедия, мелодрама
Год выпуска: 1984
Продолжительность: 01:18:30
Перевод: не требуется
Оригинальная аудиодорожка: русский
Cубтитры: нет
Режиссер: Владимир Бортко
В ролях:
Татьяна Догилева, Андрей Миронов, Марк Прудкин, Евгения Ханаева, Елена Соловей, Анатолий Сливников, Баадур Цуладзе, Анатолий Равикович, Сергей Бехтерев, Павел Кадочников...
Описание:
Устроившись работать грузчиком, бывший астрофизик влюбляется в продавщицу и оказывается в окружении людей, чуждых ему. Он старается приобщить девушку к иной жизни, но на свадебном вечере убожество «служак дефицита» обнажается до предела, и герой сбегает.-
-Исходник: DVD5 R5
Тип релиза: DVDRip
Контейнер: AVI
Видео: 688x400 (1,72:1), 25 fps, XviD ~ 1187 kbps avg, 0.172 bit/pixel
Аудио: 48 kHz, MP3 2.0, 128 kbps
Раздача от:

MediaInfo

Общее
Полное имя                               : Blondinka.za.uglom.1984.DVDRip_[New-team]_by_AVP_Studio.avi
Формат                                   : AVI
Формат/Информация                        : Audio Video Interleave
Размер файла                             : 744 Мбайт
Продолжительность                        : 1 ч. 18 м.
Общий поток                              : 1324 Кбит/сек
Программа кодирования                    : VirtualDubModRus 1.5.10.2 (build 2542/release)
Библиотека кодирования                   : VirtualDubMod build 2542/release
Видео
Идентификатор                            : 0
Формат                                   : MPEG-4 Visual
Профиль формата                          : Advanced Simple@L5
Параметр BVOP формата                    : 1
Параметр QPel формата                    : Нет
Параметр GMC формата                     : Без точки перехода
Параметр матрицы формата                 : Выборочная
Идентификатор кодека                     : XVID
Идентификатор кодека/Подсказка           : XviD
Продолжительность                        : 1 ч. 18 м.
Битрейт                                  : 1187 Кбит/сек
Ширина                                   : 688 пикселей
Высота                                   : 400 пикселей
Соотношение сторон                       : 1,720
Частота кадров                           : 25,000 кадров/сек
Цветовое пространство                    : YUV
Субдискретизация насыщенности            : 4:2:0
Битовая глубина                          : 8 бит
Тип развёртки                            : Прогрессивная
Метод сжатия                             : С потерями
Бит/(Пиксели*Кадры)                      : 0.172
Размер потока                            : 666 Мбайт (90%)
Библиотека кодирования                   : XviD 73
Аудио
Идентификатор                            : 1
Формат                                   : MPEG Audio
Версия формата                           : Version 1
Профиль формата                          : Layer 3
Идентификатор кодека                     : 55
Идентификатор кодека/Подсказка           : MP3
Продолжительность                        : 1 ч. 18 м.
Вид битрейта                             : Постоянный
Битрейт                                  : 128 Кбит/сек
Каналы                                   : 2 канала
Частота                                  : 48,0 КГц
Метод сжатия                             : С потерями
Размер потока                            : 71,9 Мбайт (10%)
Выравнивание                             : Соединение по промежуткам
Продолжительность промежутка             : 40  мс. (1,00 видеокадр)
Время предзагрузки промежутка            : 504  мс.
Библиотека кодирования                   : LAME3.99r
Настройки программы                      : -m s -V 4 -q 2 -lowpass 17 -b 128

Скриншоты

[Профиль] [ЛС]

Создавать темы 06-Авг-2015 22:03 (спустя 9 месяцев 29 дней)

Топик был перенесен из форума Кино СССР в форум Кино СССР
sergej644
 
Показать сообщения:    

Текущее время: Сегодня 07:12

Часовой пояс: GMT



Вы не можете начинать темы
Вы не можете отвечать на сообщения
Вы не можете редактировать свои сообщения
Вы не можете удалять свои сообщения
Вы не можете голосовать в опросах
Вы не можете прикреплять файлы к сообщениям
Вы не можете скачивать файлы