Блондинка в эфире / Walk of Shame (2014) BDRip 720p | iTunes

 
Автор Сообщение

sergej644 ®

Пол:

Стаж: 4 года 11 месяцев

Сообщений: 6045

Откуда: Soviet Union



Награды: Нет

Торрент-статистика

Создавать темы 29-Янв-2015 21:39

[Цитировать]

Информация о фильме
Название: Блондинка в эфире
Оригинальное название: Walk of Shame
Год выхода: 2014
Жанр: комедия
Режиссер: Стивен Брилл
В ролях: Элизабет Бэнкс, Джеймс Марсден, Джиллиан Джейкобс, Сара Райт, Итан Сапли, Билли Барр, Кен Давитян, Ларри Джиллиард мл., Альфонсо МакОли, Дэвон МакДональд
О фильме: После провала собеседования на перспективную должность на Лос-Анджелесском телевидении амбициозная телеведущая с горя уходит в загул.
Проведя бурную ночь, она приходит в себя утром на улице, не имея при себе ни денег, ни паспорта, ни машины… Есть только мобильный, в котором она читает смс: «Поздравляем! Вы приняты на работу. Сегодня первый эфир».


Выпущено: США
Продолжительность: 01:34:28
Озвучивание: Дублированное [iTunes]
Файл
Формат: MKV
Качество: BDRip 720p
Видео: 6079 kb/s, 1280x534
Аудио: Russian: AC3, 384 Kb/s (6 ch) / English: AC3, 640 kb/s (6 ch)
Субтитры: English

MI

Format : Matroska
Format version : Version 4 / Version 2
File size : 4.69 GiB
Duration : 1h 34mn
Overall bit rate : 7 101 Kbps
Encoded date : UTC 2014-07-13 19:32:55
Writing application : mkvmerge v6.1.0 ('Old Devil') built on Mar 4 2013 09:10:42
Writing library : libebml v1.3.0 + libmatroska v1.4.0
Video
ID : 1
Format : AVC
Format/Info : Advanced Video Codec
Format profile : High@L4.1
Format settings, CABAC : Yes
Format settings, ReFrames : 9 frames
Codec ID : V_MPEG4/ISO/AVC
Duration : 1h 34mn
Bit rate : 6 079 Kbps
Width : 1 280 pixels
Height : 534 pixels
Display aspect ratio : 2.40:1
Frame rate : 23.976 fps
Color space : YUV
Chroma subsampling : 4:2:0
Bit depth : 8 bits
Scan type : Progressive
Bits/(Pixel*Frame) : 0.371
Stream size : 3.92 GiB (84%)
Writing library : x264 core 138 r2358 9e941d1
Encoding settings : cabac=1 / ref=9 / deblock=1:-3:-3 / analyse=0x3:0x113 / me=umh / subme=11 / psy=1 / psy_rd=1.10:0.15 / mixed_ref=1 / me_range=32 / chroma_me=1 / trellis=2 / 8x8dct=1 / cqm=0 / deadzone=21,11 / fast_pskip=0 / chroma_qp_offset=-2 / threads=18 / lookahead_threads=1 / sliced_threads=0 / nr=0 / decimate=1 / interlaced=0 / bluray_compat=0 / constrained_intra=0 / bframes=6 / b_pyramid=2 / b_adapt=2 / b_bias=0 / direct=3 / weightb=1 / open_gop=0 / weightp=2 / keyint=250 / keyint_min=23 / scenecut=40 / intra_refresh=0 / rc_lookahead=40 / rc=2pass / mbtree=0 / bitrate=6079 / ratetol=1.0 / qcomp=0.60 / qpmin=0 / qpmax=69 / qpstep=4 / cplxblur=20.0 / qblur=0.5 / vbv_maxrate=40000 / vbv_bufsize=30000 / nal_hrd=none / ip_ratio=1.40 / pb_ratio=1.30 / aq=1:0.80
Language : English
Default : Yes
Forced : No
Audio #1
ID : 2
Format : AC-3
Format/Info : Audio Coding 3
Mode extension : CM (complete main)
Format settings, Endianness : Big
Codec ID : A_AC3
Duration : 1h 34mn
Bit rate mode : Constant
Bit rate : 384 Kbps
Channel(s) : 6 channels
Channel positions : Front: L C R, Side: L R, LFE
Sampling rate : 48.0 KHz
Bit depth : 16 bits
Compression mode : Lossy
Stream size : 259 MiB (5%)
Language : Russian
Default : Yes
Forced : No
Audio #2
ID : 3
Format : AC-3
Format/Info : Audio Coding 3
Mode extension : CM (complete main)
Format settings, Endianness : Big
Codec ID : A_AC3
Duration : 1h 34mn
Bit rate mode : Constant
Bit rate : 640 Kbps
Channel(s) : 6 channels
Channel positions : Front: L C R, Side: L R, LFE
Sampling rate : 48.0 KHz
Bit depth : 16 bits
Compression mode : Lossy
Stream size : 432 MiB (9%)
Language : English
Default : No
Forced : No
Text #1
ID : 4
Format : UTF-8
Codec ID : S_TEXT/UTF8
Codec ID/Info : UTF-8 Plain Text
Title : Full
Language : English
Default : No
Forced : No
Text #2
ID : 5
Format : UTF-8
Codec ID : S_TEXT/UTF8
Codec ID/Info : UTF-8 Plain Text
Title : SDH
Language : English
Default : No
Forced : No
Menu
00:00:00.000 : en:00:00:00.000
00:02:27.689 : en:00:02:27.689
00:07:23.735 : en:00:07:23.735
00:12:20.531 : en:00:12:20.531
00:17:16.702 : en:00:17:16.702
00:22:08.118 : en:00:22:08.118
00:26:53.737 : en:00:26:53.737
00:32:04.464 : en:00:32:04.464
00:39:18.898 : en:00:39:18.898
00:46:26.409 : en:00:46:26.409
00:51:02.977 : en:00:51:02.977
00:54:24.678 : en:00:54:24.678
00:59:49.211 : en:00:59:49.211
01:05:01.523 : en:01:05:01.523
01:07:40.223 : en:01:07:40.223
01:11:44.634 : en:01:11:44.634
01:15:06.252 : en:01:15:06.252
01:22:58.473 : en:01:22:58.473
01:27:27.701 : en:01:27:27.701
01:29:34.703 : en:01:29:34.703

Скриншоты

[Профиль] [ЛС]
Кто просматривает тему:

Форум Тема Автор Размер
Фильмы 2011 года Блондинка в законе / Legally Blonde (2001) HDRip sergej644 1.45 GB
Фильмы (HD DVD, Blu-ray и BDRemux) Блондинка в эфире / Walk of Shame (2014) BDRemux 1080p | Лицензия достали все 28.65 GB
Фильмы (HD Rips | 720p, 1080p) Блондинка в эфире / Walk of Shame (2014) BDRip 720p | Лицензия sergej644 2.03 GB
Фильмы (HD DVD, Blu-ray и BDRemux) Блондинка в эфире / Walk of Shame (2014) Blu-ray 1080p от NovaLan достали все 29.45 GB
Фильмы 2014 года Блондинка в эфире / Walk of Shame (Стивен Брилл / Steven Brill) [2014, Комедия, BDRip-AVC] Dub + Original (Eng) + Sub (rus., eng.) painkiller 2.17 GB
Фильмы 2014 года Блондинка в эфире / Walk of Shame (Стивен Брилл / Steven Brill) [2014, США, комедия, HDRip] Dub bot 1.37 GB
Фильмы (HD Rips | 720p, 1080p) Блондинка в эфире / Walk of Shame (Стивен Брилл / Steven Brill) [2014, США, Комедия, приключения, BDRip 1080p] Dub (iTunes Rus) + Original (Eng) + Sub (Rus, Eng, Spa) bot 12.11 GB
Фильмы 2014 года Блондинка в эфире / Walk of Shame (Стивен Брилл / Steven Brill) [2014, США, комедия, приключения, BDRip] Dub reversefile 744 MB
Показать сообщения:    

Текущее время: Сегодня 11:52

Часовой пояс: GMT



Вы не можете начинать темы
Вы не можете отвечать на сообщения
Вы не можете редактировать свои сообщения
Вы не можете удалять свои сообщения
Вы не можете голосовать в опросах
Вы не можете прикреплять файлы к сообщениям
Вы не можете скачивать файлы