Блондинка в эфире / Walk of Shame (Стивен Брилл / Steven Brill) [2014, США, комедия, приключения, BDRip] Dub

 
Автор Сообщение

reversefile ®

Пол:

Стаж: 4 года 5 месяцев

Сообщений: 842

Откуда: ReverseFile.org



Награды: Нет

Торрент-статистика

Создавать темы 25-Июл-2014 01:16

[Цитировать]

Блондинка в эфире / Walk of Shame«Улетная ночь. Непредсказуемые последствия»- Год выхода: 2014
Жанр: комедия, приключения
Страна: США / FilmDistrict, Lakeshore Entertainment, Sidney Kimmel Entertainment
Продолжительность: 01:34:28
Перевод: Профессиональный (полное дублирование) iTunes
Субтитры: нет-Режиссёр: Стивен Брилл / Steven Brill-В ролях: Элизабет Бэнкс, Джеймс Марсден, Джиллиан Джейкобс, Сара Райт, Итан Сапли, Билли Барр, Кен Давитян, Ларри Джиллиард мл., Альфонсо МакОли, Дэвон МакДональд, Эрик Этебари, Оливер Хадсон, Джейкоб Тимоти Маноун, Кэрол Мэнселл, Брайан Коллен, Тиг Нотаро, Уилли Гарсон, Эрин Сигал, Крис Коннер, Лиз Кэри, Брэндон Скотт, Йен Робертс, Кевин Нилон-Описание: Мечта репортерши стать ведущей программы новостей может быть разрушена. После ночи кутежа она оказывается в дальнем районе Лос-Анджелеса без телефона, автомобиля, паспорта и денег — и у нее остается только 8 часов, чтобы добраться до самого важного собеседования ее жизни.- -Сэмпл: http://multi-up.com/986853-Качество: BDRip [BDRemux / 1080p / кинозал]
Формат: AVI
Видео: 688x288 (2.39:1), 23.976 fps, XviD build 73 ~964 kbps avg, 0.20 bit/pixel
Аудио: 48 kHz, MPEG Layer 3, 2 ch, ~128.00 kbps avg
-

Media Info

Формат                                   : AVI
Формат/Информация                        : Audio Video Interleave
Размер файла                             : 744 Мбайт
Продолжительность                        : 1 ч. 34 м.
Общий поток                              : 1101 Кбит/сек
Программа кодирования                    : VirtualDubMod 1.5.10.3 | www.virtualdub-fr.org || (build 2550/release)
Библиотека кодирования                   : VirtualDubMod build 2550/release
Видео
Идентификатор                            : 0
Формат                                   : MPEG-4 Visual
Профиль формата                          : Advanced Simple@L5
Параметр BVOP формата                    : 1
Параметр QPel формата                    : Нет
Параметр GMC формата                     : Без точки перехода
Параметр матрицы формата                 : Выборочная
Идентификатор кодека                     : XVID
Идентификатор кодека/Подсказка           : XviD
Продолжительность                        : 1 ч. 34 м.
Битрейт                                  : 964 Кбит/сек
Ширина                                   : 688 пикселей
Высота                                   : 288 пикселей
Соотношение сторон                       : 2,40:1
Частота кадров                           : 23,976 кадра/сек
Цветовое пространство                    : YUV
Субдискретизация насыщенности            : 4:2:0
Битовая глубина                          : 8 бит
Тип развёртки                            : Прогрессивная
Метод сжатия                             : С потерями
Бит/(Пиксели*Кадры)                      : 0.203
Размер потока                            : 651 Мбайт (88%)
Библиотека кодирования                   : XviD 73
Аудио
Идентификатор                            : 1
Формат                                   : MPEG Audio
Версия формата                           : Version 1
Профиль формата                          : Layer 3
Идентификатор кодека                     : 55
Идентификатор кодека/Подсказка           : MP3
Продолжительность                        : 1 ч. 34 м.
Вид битрейта                             : Постоянный
Битрейт                                  : 128 Кбит/сек
Каналы                                   : 2 канала
Частота                                  : 48,0 КГц
Метод сжатия                             : С потерями
Размер потока                            : 86,5 Мбайт (12%)
Выравнивание                             : Соединение по промежуткам
Продолжительность промежутка             : 42  мс. (1,00 видеокадр)
Время предзагрузки промежутка            : 504  мс.

Скриншоты

[Профиль] [ЛС]
Показать сообщения:    

Текущее время: Сегодня 14:07

Часовой пояс: GMT



Вы не можете начинать темы
Вы не можете отвечать на сообщения
Вы не можете редактировать свои сообщения
Вы не можете удалять свои сообщения
Вы не можете голосовать в опросах
Вы не можете прикреплять файлы к сообщениям
Вы не можете скачивать файлы