Блондинка в эфире / Walk of Shame (Стивен Брилл / Steven Brill) [2014, США, Комедия, приключения, BDRip 1080p] Dub (iTunes Rus) + Original (Eng) + Sub (Rus, Eng, Spa)

 
Автор Сообщение

Создавать темы 20-Июл-2014 09:42

Блондинка в эфире / Walk of Shame- Страна: США
Жанр: Комедия, приключения
Год выпуска: 2014
Продолжительность: 01:34:28
Перевод: Профессиональный (дублированный) - iTunes Rus
Cубтитры: русские, английские, испанские
Оригинальная аудиодорожка: английская-Режиссер: Стивен Брилл / Steven Brill
В ролях: Элизабет Бэнкс, Джеймс Марсден, Джиллиан Джейкобс, Сара Райт, Итэн Сапли, Билли Барр, Кен Давитян, Ларри Джиллиард мл., Альфонсо МакОли, Дэвон МакДональд.-Описание: Все начинается с того, что главная героиня Меган решила устроиться на работу телеведущей. Она отправляется на собеседование и решает, что проваливает его. С горя Меган напивается в баре с подружками и просыпается с похмельем непонятно где без ключей и денег, а на телефон ей приходит сообщение, что она принята на работу и через восемь часов у нее эфир. С этого момента наша героиня постоянно попадает в различные неприятности, они окружают ее просто со всех сторон. Она пытается выбраться из неблагополучной части города при этом попадая во множество невероятных приключений, из-за которых ее судьба совершенно меняется.- -Качество видео: BDRip 1080p (DON)
Формат видео: MKV
Видео: x.264, 1916x800, 16454 kbps, 23.976 fps
Аудио 1: AC3, 48000 Hz, 384 kbps, 5,1 channels - RUS
Аудио 2: DTS, 48000 Hz, 1509 kbps, 5,1 channels - ENG
Субтитры: SRT - русские, английские, испанские
Главы: Есть-

Скриншоты

Blu-ray---------------------------------------------DON--------------------------------------------GECKOS










-

MediaInfo/log

Format : Matroska
Format version : Version 4 / Version 2
File size : 12.1 GiB
Duration : 1h 34mn
Overall bit rate : 18.4 Mbps
Movie name : Блондинка в эфире / Walk of Shame (2014) BDRip 1080p
Encoded date : UTC 2014-07-15 21:41:35
Writing application : mkvmerge v7.0.0 ('Where We Going') 32bit built on Jun 9 2014 15:08:34
Writing library : libebml v1.3.0 + libmatroska v1.4.1
Cover : Yes
Video
ID : 1
Format : AVC
Format/Info : Advanced Video Codec
Format profile : High@L4.1
Format settings, CABAC : Yes
Format settings, ReFrames : 5 frames
Codec ID : V_MPEG4/ISO/AVC
Duration : 1h 34mn
Bit rate : 16.1 Mbps
Width : 1 916 pixels
Height : 800 pixels
Display aspect ratio : 2.40:1
Frame rate mode : Constant
Frame rate : 23.976 fps
Color space : YUV
Chroma subsampling : 4:2:0
Bit depth : 8 bits
Scan type : Progressive
Bits/(Pixel*Frame) : 0.438
Stream size : 10.6 GiB (88%)
Title : Walk.of.Shame.2014.1080p.BluRay.DTS.x264-DON
Writing library : x264 core 140 r2377 1ca7bb9
Encoding settings : cabac=1 / ref=5 / deblock=1:-3:-3 / analyse=0x3:0x133 / me=umh / subme=11 / psy=1 / psy_rd=1.05:0.00 / mixed_ref=1 / me_range=48 / chroma_me=1 / trellis=2 / 8x8dct=1 / cqm=0 / deadzone=21,11 / fast_pskip=0 / chroma_qp_offset=-2 / threads=12 / lookahead_threads=2 / sliced_threads=0 / nr=0 / decimate=0 / interlaced=0 / bluray_compat=0 / constrained_intra=0 / bframes=8 / b_pyramid=2 / b_adapt=2 / b_bias=0 / direct=3 / weightb=1 / open_gop=0 / weightp=2 / keyint=240 / keyint_min=23 / scenecut=40 / intra_refresh=0 / rc_lookahead=60 / rc=crf / mbtree=0 / crf=16.0 / qcomp=0.60 / qpmin=0 / qpmax=69 / qpstep=4 / vbv_maxrate=62500 / vbv_bufsize=78125 / crf_max=0.0 / nal_hrd=none / filler=0 / ip_ratio=1.20 / pb_ratio=1.10 / aq=1:0.70
Language : English
Default : Yes
Forced : No
Audio #1
ID : 2
Format : AC-3
Format/Info : Audio Coding 3
Mode extension : CM (complete main)
Format settings, Endianness : Big
Codec ID : A_AC3
Duration : 1h 34mn
Bit rate mode : Constant
Bit rate : 384 Kbps
Channel(s) : 6 channels
Channel positions : Front: L C R, Side: L R, LFE
Sampling rate : 48.0 KHz
Bit depth : 16 bits
Compression mode : Lossy
Stream size : 259 MiB (2%)
Title : iTunes Rus
Language : Russian
Default : Yes
Forced : No
Audio #2
ID : 3
Format : DTS
Format/Info : Digital Theater Systems
Mode : 16
Format settings, Endianness : Big
Codec ID : A_DTS
Duration : 1h 34mn
Bit rate mode : Constant
Bit rate : 1 509 Kbps
Channel(s) : 6 channels
Channel positions : Front: L C R, Side: L R, LFE
Sampling rate : 48.0 KHz
Bit depth : 24 bits
Compression mode : Lossy
Stream size : 1 020 MiB (8%)
Language : English
Default : No
Forced : No
Text #1
ID : 4
Format : UTF-8
Codec ID : S_TEXT/UTF8
Codec ID/Info : UTF-8 Plain Text
Language : Russian
Default : No
Forced : No
Text #2
ID : 5
Format : UTF-8
Codec ID : S_TEXT/UTF8
Codec ID/Info : UTF-8 Plain Text
Title : SDH
Language : English
Default : No
Forced : No
Text #3
ID : 6
Format : UTF-8
Codec ID : S_TEXT/UTF8
Codec ID/Info : UTF-8 Plain Text
Language : Spanish
Default : No
Forced : No
Menu
00:00:00.000 : en:00:00:00.000
00:02:27.689 : en:00:02:27.689
00:07:23.735 : en:00:07:23.735
00:12:20.531 : en:00:12:20.531
00:17:16.702 : en:00:17:16.702
00:22:08.118 : en:00:22:08.118
00:26:53.737 : en:00:26:53.737
00:32:04.464 : en:00:32:04.464
00:39:18.898 : en:00:39:18.898
00:46:26.409 : en:00:46:26.409
00:51:02.977 : en:00:51:02.977
00:54:24.678 : en:00:54:24.678
00:59:49.211 : en:00:59:49.211
01:05:01.523 : en:01:05:01.523
01:07:40.223 : en:01:07:40.223
01:11:44.634 : en:01:11:44.634
01:15:06.252 : en:01:15:06.252
01:22:58.473 : en:01:22:58.473
01:27:27.701 : en:01:27:27.701
01:29:34.703 : en:01:29:34.703
===================================================
x264 [info]: frame I:1347 Avg QP:14.54 size:248002x264 [info]: frame P:28779 Avg QP:15.45 size:113234x264 [info]: frame B:105785 Avg QP:16.13 size: 76250x264 [info]: consecutive B-frames: 2.1% 1.8% 10.6% 12.3% 16.9% 49.0% 4.3% 2.0% 0.9%encoded 135911 frames, 4.28 fps, 16453.98 kb/s
 
Показать сообщения:    

Текущее время: Сегодня 03:13

Часовой пояс: GMT



Вы не можете начинать темы
Вы не можете отвечать на сообщения
Вы не можете редактировать свои сообщения
Вы не можете удалять свои сообщения
Вы не можете голосовать в опросах
Вы не можете прикреплять файлы к сообщениям
Вы не можете скачивать файлы