Блондинка в законе / Legally Blonde (2001) HDRip

 
Автор Сообщение

sergej644 ®

Пол:

Стаж: 4 года 11 месяцев

Сообщений: 6038

Откуда: Soviet Union



Награды: Нет

Торрент-статистика

Создавать темы 10-Янв-2015 21:09

[Цитировать]

-Блондинка в законе / Legally Blonde (2001) HDRip- Год выпуска: 2001
Производство: США
Жанр: Мелодрама, комедия
Режиссер: Роберт Лукетич
Актеры: Риз Уизерспун, Люк Уилсон, Сэлма Блэр, Мэттью Дэвис, Виктор Гарбер, Дженнифер Кулидж, Холланд Тейлор, Эли Лартер, Джессика Коффил, Аланна Юбак, Оз Перкинс, Линда Карделлини, Брюс Томас, Мередит Скотт Линн, Рэкел Уэлч, Саманта Лемоул, Келли Никс, Тед Кайрис, Майкл Б. Сильвер, Кимберли МакКалло
Описание фильма:
У Эль Вудс кажется, есть все, что может пожелать современная девушка. Она — красавица, президент университетского женского клуба, носит звание "Мисс Июнь", но главное, она — натуральная блондинка. Ее бойфрэнд — лучший парень университета и единственное о чем она мечтает, это стать миссис Уорнер Хантингтон III. Но оказывается, Уорнер считает Эль слишком ветреной девушкой, и вместо долгожданного предложения руки и сердца он открывает Эль свои коварные планы, поступить в Гарвард на юридический факультет и жениться на умной интеллигентной девушке. Проведя пару недель в истерике и съев много шоколадных конфет, Эль отправляется в Гарвард возвращать своего ненаглядного. Своей любовью к эпатажу и розовому белью, она взбудоражила все почтенное население Гарварда, покачнув самые основы древнего университета. То как она это делает и чем это закончится, нужно видеть.
Перевод: Дублированный
Субтитры: Отсутствуют

Продолжительность: 01:36:00
Качество видео: HDRip
Видеокодек: XviD
Битрейт видео: ~1954 Кбит/с
Размер кадра: 720x304
Аудиокодек: AC3 2 ch
Битрейт аудио: 192 Кбит/с

MediaInfo:

Общее
Полное имя : C:\NNM\Блондинка в законе\Blondinka v zakone 2001 HDRip.avi
Формат : AVI
Формат/Информация : Audio Video Interleave
Размер файла : 1,45 Гбайт
Продолжительность : 1 ч. 36 м.
Общий поток : 2155 Кбит/сек
Программа кодирования : VirtualDubMod 1.5.10.3
Библиотека кодирования : VirtualDubMod build 2550/release
Видео
Идентификатор : 0
Формат : MPEG-4 Visual
Профиль формата : Advanced Simple@L5
Параметр BVOP формата : 1
Параметр QPel формата : Нет
Параметр GMC формата : Без точки перехода
Параметр матрицы формата : Выборочная
Идентификатор кодека : XVID
Идентификатор кодека/Подсказка : XviD
Продолжительность : 1 ч. 36 м.
Битрейт : 1954 Кбит/сек
Ширина : 720 пикселей
Высота : 304 пикселя
Соотношение сторон : 2,35:1
Частота кадров : 23,976 кадра/сек
Цветовое пространство : YUV
Субдискретизация насыщенности : 4:2:0
Битовая глубина : 8 бит
Тип развёртки : Прогрессивная
Метод сжатия : С потерями
Бит/(Пиксели*Кадры) : 0.372
Размер потока : 1,31 Гбайт (91%)
Библиотека кодирования : XviD 73
Аудио
Идентификатор : 1
Формат : AC-3
Формат/Информация : Audio Coding 3
Расширение режима : CM (complete main)
Идентификатор кодека : 2000
Продолжительность : 1 ч. 36 м.
Вид битрейта : Постоянный
Битрейт : 192 Кбит/сек
Каналы : 2 канала
Расположение каналов : Front: L R
Частота : 48,0 КГц
Битовая глубина : 16 бит
Метод сжатия : С потерями
Размер потока : 132 Мбайт (9%)
Выравнивание : Разделение по промежуткам
Продолжительность промежутка : 42 мс. (1,00 видеокадр)
Время предзагрузки промежутка : 500 мс.
Скриншоты:
Время раздачи:Круглосуточно до 10 скачавших
[Профиль] [ЛС]

Создавать темы 06-Авг-2015 22:48 (спустя 6 месяцев 27 дней)

Топик был перенесен из форума Фильмы до 2014 года в форум Фильмы до 2012 года
sergej644
 
Кто просматривает тему:

Форум Тема Автор Размер
Фильмы (HD DVD, Blu-ray и BDRemux) Блондинка в эфире / Walk of Shame (2014) BDRemux 1080p | Лицензия достали все 28.65 GB
Фильмы (HD Rips | 720p, 1080p) Блондинка в эфире / Walk of Shame (2014) BDRip 720p | iTunes sergej644 4.69 GB
Фильмы (HD Rips | 720p, 1080p) Блондинка в эфире / Walk of Shame (2014) BDRip 720p | Лицензия sergej644 2.03 GB
Фильмы (HD DVD, Blu-ray и BDRemux) Блондинка в эфире / Walk of Shame (2014) Blu-ray 1080p от NovaLan достали все 29.45 GB
Фильмы 2014 года Блондинка в эфире / Walk of Shame (Стивен Брилл / Steven Brill) [2014, Комедия, BDRip-AVC] Dub + Original (Eng) + Sub (rus., eng.) painkiller 2.17 GB
Фильмы 2014 года Блондинка в эфире / Walk of Shame (Стивен Брилл / Steven Brill) [2014, США, комедия, HDRip] Dub bot 1.37 GB
Фильмы (HD Rips | 720p, 1080p) Блондинка в эфире / Walk of Shame (Стивен Брилл / Steven Brill) [2014, США, Комедия, приключения, BDRip 1080p] Dub (iTunes Rus) + Original (Eng) + Sub (Rus, Eng, Spa) bot 12.11 GB
Фильмы 2014 года Блондинка в эфире / Walk of Shame (Стивен Брилл / Steven Brill) [2014, США, комедия, приключения, BDRip] Dub reversefile 744 MB
Показать сообщения:    

Текущее время: Сегодня 08:29

Часовой пояс: GMT



Вы не можете начинать темы
Вы не можете отвечать на сообщения
Вы не можете редактировать свои сообщения
Вы не можете удалять свои сообщения
Вы не можете голосовать в опросах
Вы не можете прикреплять файлы к сообщениям
Вы не можете скачивать файлы