Близнецы / Still/Born (2017) WEB-DLRip | iTunes

 
Author Message

BOSS ®

Gender:

Longevity: 5 years 11 months

Posts: 14717

Location: ODESSA



: 22 ()

Top Keeper 4 (1) Top Seeder 3 (1) Mega Releaser 1 (1)
Торрент-статистика

Post 09-Mar-2019 17:19

[Quote]

Информация о фильме
Название: Близнецы
Оригинальное название: Still/Born
Год выхода: 2017
Жанр: Ужасы, триллер
Режиссер: Брэндон Кристенсен
В ролях: Кристи Бурк, Джесси Мосс, Ребекка Олсон, Джен Гриффин, Майкл Айронсайд, Шейла Маккарти, Шон Роджерсон, Грэйс Кристенсен, Дайян Снейп, Бриттани Аллен
Описание: По древней легенде, демоны охотятся за душами близнецов, чтобы завладеть их телами в реальном мире. После потери одного из близнецов при родах Мэри испытывает постоянный страх за второго ребенка. Но чем сильнее ее страх, тем острее его чуют демоны, и тем ближе они к близнецу.

Страна: Канада
Продолжительность: 01:23:26
Перевод: Дублированный | iTunes
Файл
Качество: WEB-DLRip
Формат: AVI
Видео: 720x304 (2.37:1), 25 fps, XviD build 73 ~2106 kbps avg, 0.39 bit/pixel
Аудио: 48 kHz, AC3 Dolby Digital, 3/2 (L,C,R,l,r) + LFE ch, ~384 kbps
Субтитры: Нет

MediaInfo

Формат                                   : AVI
Формат/Информация                        : Audio Video Interleave
Размер файла                             : 1,46 Гбайт
Продолжительность                        : 1 ч. 23 м.
Общий поток                              : 2500 Кбит/сек
Программа кодирования                    : VirtualDubMod 1.5.10.3
Библиотека кодирования                   : VirtualDubMod build 2550/release
Видео
Идентификатор                            : 0
Формат                                   : MPEG-4 Visual
Профиль формата                          : Advanced Simple@L5
Настройки формата                        : BVOP1 / Custom Matrix
Параметр BVOP формата                    : 1
Параметр QPel формата                    : Нет
Параметр GMC формата                     : Без точки перехода
Параметр матрицы формата                 : Выборочная
Идентификатор кодека                     : XVID
Идентификатор кодека/Подсказка           : XviD
Продолжительность                        : 1 ч. 23 м.
Битрейт                                  : 2106 Кбит/сек
Ширина                                   : 720 пикселей
Высота                                   : 304 пикселя
Соотношение сторон                       : 2,35:1
Частота кадров                           : 25,000 кадров/сек
Цветовое пространство                    : YUV
Субдискретизация насыщенности            : 4:2:0
Битовая глубина                          : 8 бит
Тип развёртки                            : Прогрессивная
Метод сжатия                             : С потерями
Бит/(Пиксели*Кадры)                      : 0.385
Размер потока                            : 1,23 Гбайт (84%)
Библиотека кодирования                   : XviD 73
Аудио
Идентификатор                            : 1
Формат                                   : AC-3
Формат/Информация                        : Audio Coding 3
Коммерческое название                    : Dolby Digital
Идентификатор кодека                     : 2000
Продолжительность                        : 1 ч. 23 м.
Вид битрейта                             : Постоянный
Битрейт                                  : 384 Кбит/сек
Каналы                                   : 6 каналов
Channel layout                           : L R C LFE Ls Rs
Частота                                  : 48,0 КГц
Частота кадров                           : 31,250 кадров/сек (1536 SPF)
Битовая глубина                          : 16 бит
Метод сжатия                             : С потерями
Размер потока                            : 229 Мбайт (15%)
Выравнивание                             : Разделение по промежуткам
Продолжительность промежутка             : 40  мс. (1,00 видеокадр)
Время предзагрузки промежутка            : 500  мс

Скриншоты

[Profile] [PM]
Display posts from previous:    

The time now is: Today 04:53

All times are GMT



You cannot post new topics in this forum
You cannot reply to topics in this forum
You cannot edit your posts in this forum
You cannot delete your posts in this forum
You cannot vote in polls in this forum
You cannot attach files in this forum
You cannot download files in this forum