Близнецы / The Skeleton Twins (2014) BDRip 720p | Лицензия

 
Автор Сообщение

sergej644 ®

Пол:

Стаж: 4 года 11 месяцев

Сообщений: 6035

Откуда: Soviet Union



Награды: Нет

Торрент-статистика

Создавать темы 13-Фев-2015 22:02

[Цитировать]

Информация о фильме
Название: Близнецы
Оригинальное название: The Skeleton Twins
Год выхода: 2014
Жанр: драма
Режиссер: Крэйг Джонсон / Craig Johnson
В ролях: Кристен Уиг, Тай Бурелл, Бойд Холбрук, Билл Хейдер, Люк Уилсон, Кэтлин Роуз Перкинс, Джоанна Глисон, Йен Хайланд, Дженнифер ЛаФлер, Женевьева Адамс
О фильме:
Близнецы Мэгги и Майло не общались друг с другом сто лет, но, так уж случилось, что в один и тот же день и час они ухитрились чудом избежать смерти. Именно в минуту опасности оба пообещали изменить в жизни всё, что пошло не так, как им хотелось. Для Мэгги это пересмотр собственного брака с Лэнсом, а для гея Майло — попытка восстановить отношения со своим бывшим учителем Ричем, о чем они оба, в общем-то, стараются помалкивать. А потом брат и сестра осознают, что ключ к нормальной жизни для них — это еще и восстановление

Страна: США
Студия: Duplass Brothers Productions
Продолжительность: 01:33:05
Перевод: Профессиональный (многоголосый закадровый)
Файл
Кодек: x264
Качество: BDRip 720p
Видео: 1280x534 at 23.976 fps, x264@L4.1, crf, ~6922 kbps avg
Звук:
Аудио: Russian: 48 kHz, AC3, 3/2 (L,C,R,l,r) + LFE ch, ~348.00 kbps avg
Аудио 2: English: 48 kHz, AC3, 3/2 (L,C,R,l,r) + LFE ch, ~640.00 kbps avg
Аудио 3: English: 48 kHz, AAC, 2/0 (L,R) ch, ~64.00 kbps avg |Commentary with Director/Co-Writer Craig Johnson, Kristen Wiig and Bill Hader|
Аудио 4: English: 48 kHz, AAC, 2/0 (L,R) ch, ~64.00 kbp avg |Commentary with Director/Co-Writer Craig Johnson, Co-Writer Mark Heyman and Producer/Editor Jennifer Lee|
Субтитры: Rus, Eng

MediaInfo

Format : Matroska
Format version : Version 4 / Version 2
File size : 5.35 GiB
Duration : 1h 33mn
Overall bit rate : 8 229 Kbps
Movie name : The Skeleton Twins (2014) - Release for HDCLUB
Encoded date : UTC 2015-02-13 16:30:49
Writing application : mkvmerge v7.1.0 ('Good Love') 64bit built on Jul 27 2014 13:06:55
Writing library : libebml v1.3.0 + libmatroska v1.4.1
DURATION : 01:28:49.823000000
NUMBER_OF_FRAMES : 1354
NUMBER_OF_BYTES : 44366
_STATISTICS_WRITING_APP : mkvmerge v7.1.0 ('Good Love') 64bit built on Jul 27 2014 13:06:55
_STATISTICS_WRITING_DATE_UTC : 2015-02-13 16:30:49
_STATISTICS_TAGS : BPS DURATION NUMBER_OF_FRAMES NUMBER_OF_BYTES
Video
ID : 1
Format : AVC
Format/Info : Advanced Video Codec
Format profile : High@L4.1
Format settings, CABAC : Yes
Format settings, ReFrames : 12 frames
Codec ID : V_MPEG4/ISO/AVC
Duration : 1h 33mn
Bit rate : 6 922 Kbps
Width : 1 280 pixels
Height : 534 pixels
Display aspect ratio : 2.40:1
Frame rate mode : Constant
Frame rate : 23.976 fps
Color space : YUV
Chroma subsampling : 4:2:0
Bit depth : 8 bits
Scan type : Progressive
Title : The Skeleton Twins (2014) - Release for HDCLUB
Writing library : x264 core 142 r2431+42 c69a006 tMod [8-bit@all X86_64]
Encoding settings : cabac=1 / ref=12 / deblock=1:-3:-3 / analyse=0x3:0x133 / me=tesa / subme=10 / psy=1 / fade_compensate=0.00 / psy_rd=1.05:0.00 / mixed_ref=1 / me_range=32 / chroma_me=1 / trellis=2 / 8x8dct=1 / cqm=0 / deadzone=21,11 / fast_pskip=0 / chroma_qp_offset=-2 / threads=12 / lookahead_threads=3 / sliced_threads=0 / nr=0 / decimate=1 / interlaced=0 / bluray_compat=0 / constrained_intra=0 / fgo=0 / bframes=12 / b_pyramid=2 / b_adapt=2 / b_bias=0 / direct=3 / weightb=1 / open_gop=0 / weightp=2 / keyint=241 / keyint_min=23 / scenecut=40 / intra_refresh=0 / rc_lookahead=60 / rc=crf / mbtree=0 / crf=16.9000 / qcomp=0.70 / qpmin=0:0:0 / qpmax=69:69:69 / qpstep=4 / vbv_maxrate=50000 / vbv_bufsize=62500 / crf_max=0.0 / nal_hrd=none / filler=0 / ip_ratio=1.40 / pb_ratio=1.30 / aq=4:0.80 / aq-sensitivity=10.00 / aq-factor=1.00:1.00:1.00 / aq2=0 / aq3=0 / zones=126260,133920,q=26
Language : English
Default : Yes
Forced : No
DURATION : 01:33:05.622000000
NUMBER_OF_FRAMES : 133921
NUMBER_OF_BYTES : 4930228756
_STATISTICS_WRITING_APP : mkvmerge v7.1.0 ('Good Love') 64bit built on Jul 27 2014 13:06:55
_STATISTICS_WRITING_DATE_UTC : 2015-02-13 16:30:49
_STATISTICS_TAGS : BPS DURATION NUMBER_OF_FRAMES NUMBER_OF_BYTES
Audio #1
ID : 2
Format : AC-3
Format/Info : Audio Coding 3
Mode extension : CM (complete main)
Format settings, Endianness : Big
Codec ID : A_AC3
Duration : 1h 33mn
Bit rate mode : Constant
Bit rate : 384 Kbps
Channel(s) : 6 channels
Channel positions : Front: L C R, Side: L R, LFE
Sampling rate : 48.0 KHz
Bit depth : 16 bits
Compression mode : Lossy
Stream size : 256 MiB (5%)
Title : AC3 5.1 @ 384 kbps - MVO, R5
Language : Russian
Default : Yes
Forced : No
Audio #2
ID : 3
Format : AC-3
Format/Info : Audio Coding 3
Mode extension : CM (complete main)
Format settings, Endianness : Big
Codec ID : A_AC3
Duration : 1h 33mn
Bit rate mode : Constant
Bit rate : 640 Kbps
Channel(s) : 6 channels
Channel positions : Front: L C R, Side: L R, LFE
Sampling rate : 48.0 KHz
Bit depth : 16 bits
Compression mode : Lossy
Stream size : 426 MiB (8%)
Title : AC3 5.1 @ 640 kbps
Language : English
Default : No
Forced : No
Audio #3
ID : 4
Format : AAC
Format/Info : Advanced Audio Codec
Format profile : LC
Codec ID : A_AAC
Duration : 1h 33mn
Channel(s) : 2 channels
Channel positions : Front: L R
Sampling rate : 48.0 KHz
Compression mode : Lossy
Title : AAC 2.0 @ 64 kbps - Commentary with Director/Co-Writer Craig Johnson, Kristen Wiig and Bill Hader
Language : English
Default : No
Forced : No
Audio #4
ID : 5
Format : AAC
Format/Info : Advanced Audio Codec
Format profile : LC
Codec ID : A_AAC
Duration : 1h 33mn
Channel(s) : 2 channels
Channel positions : Front: L R
Sampling rate : 48.0 KHz
Compression mode : Lossy
Title : AAC 2.0 @ 64 kbps - Commentary with Director/Co-Writer Craig Johnson, Co-Writer Mark Heyman and Producer/Editor Jennifer Lee
Language : English
Default : No
Forced : No
Text #1
ID : 6
Format : UTF-8
Codec ID : S_TEXT/UTF8
Codec ID/Info : UTF-8 Plain Text
Language : Russian
Default : No
Forced : No
Text #2
ID : 7
Format : UTF-8
Codec ID : S_TEXT/UTF8
Codec ID/Info : UTF-8 Plain Text
Language : English
Default : No
Forced : No
Text #3
ID : 8
Format : UTF-8
Codec ID : S_TEXT/UTF8
Codec ID/Info : UTF-8 Plain Text
Title : SDH
Language : English
Default : No
Forced : No
Menu
00:00:00.000 : :00:00:00.000
00:06:07.367 : :00:06:07.367
00:12:38.466 : :00:12:38.466
00:16:30.990 : :00:16:30.990
00:21:49.850 : :00:21:49.850
00:27:03.121 : :00:27:03.121
00:33:06.193 : :00:33:06.193
00:38:44.572 : :00:38:44.572
00:44:36.424 : :00:44:36.424
00:49:29.592 : :00:49:29.592
00:54:22.134 : :00:54:22.134
00:59:23.101 : :00:59:23.101
01:05:16.204 : :01:05:16.204
01:11:33.998 : :01:11:33.998
01:18:05.848 : :01:18:05.848
01:27:46.094 : :01:27:46.094

Скриншоты

[Профиль] [ЛС]
Показать сообщения:    

Текущее время: Сегодня 18:18

Часовой пояс: GMT



Вы не можете начинать темы
Вы не можете отвечать на сообщения
Вы не можете редактировать свои сообщения
Вы не можете удалять свои сообщения
Вы не можете голосовать в опросах
Вы не можете прикреплять файлы к сообщениям
Вы не можете скачивать файлы