Близнецы / The Skeleton Twins (Крэйг Джонсон / Craig Johnson) [2014, США, Драма, HDRip] VO (Lord32x)

 
Автор Сообщение

TorrentFilm ®

Пол:

Стаж: 2 года

Сообщений: 7741



Награды: Нет

Торрент-статистика

Создавать темы 13-Янв-2015 00:00

[Цитировать]

Близнецы / The Skeleton Twins
Страна: США
Жанр: Драма
Год выпуска: 2014
Продолжительность: 01:33:06
Перевод: Одноголосый закадровый Lord32x, перевод Абасов Али
Cубтитры: нет
Режиссер: Крэйг Джонсон / Craig Johnson
В ролях: Кристен Уиг, Билл Хейдер, Люк Уилсон, Тай Буррелл, Бойд Холбрук, Кэтлин Роуз Перкинс, Джоанна Глисон, Йен Хайланд, Дженнифер ЛаФлер, Женевьева Адамс
Описание: Близнецы Мэгги и Майло не общались друг с другом сто лет, но, так уж случилось, что в один и тот же день и час они ухитрились чудом избежать смерти. Именно в минуту опасности оба пообещали изменить в жизни всё, что пошло не так, как им хотелось. Для Мэгги это пересмотр собственного брака с Лэнсом, а для гея Майло — попытка восстановить отношения со своим бывшим учителем Ричем, о чем они оба, в общем-то, стараются помалкивать. А потом брат и сестра осознают, что ключ к нормальной жизни для них — это еще и восстановление отношений друг с другом.
Доп. информация: Награды: Кинофестиваль "Сандэнс" 2014 г. - "Приз за работу сценариста имени Валдо Солта", "Гран-при в категории "Драматический фильм"
Рейтинг MPAA: Лицам до 17 лет обязательно присутствие взрослого.
Внимание: В фильме присутствует ненормативная лексика
Кинопоиск 7,3 | IMDB 7,0
Сэмпл: http://sendfile.su/1072232
Качество видео: HDRip
Формат видео: AVI
Видео: XVID, 720x304, 1 766 Kbps, 23.976 fps, 0.337 b/p
Аудио: AC-3, 448 Kbps, 6 channels, 48.0 KHz

MediaInfo

General
Complete name : E:\Фильмы\The.Skeleton.Twins.2014.HDRip.VO.avi
Format : AVI
Format/Info : Audio Video Interleave
File size : 1.45 GiB
Duration : 1h 33mn
Overall bit rate : 2 224 Kbps
Writing application : VirtualDubMod 1.5.10.3 | www.virtualdub-fr.org || (build 2550/release)
Writing library : VirtualDubMod build 2550/release
Video
ID : 0
Format : MPEG-4 Visual
Format profile : Advanced Simple@L5
Format settings, BVOP : 2
Format settings, QPel : No
Format settings, GMC : No warppoints
Format settings, Matrix : Default (H.263)
Muxing mode : Packed bitstream
Codec ID : XVID
Codec ID/Hint : XviD
Duration : 1h 33mn
Bit rate : 1 766 Kbps
Width : 720 pixels
Height : 304 pixels
Display aspect ratio : 2.35:1
Frame rate : 23.976 fps
Color space : YUV
Chroma subsampling : 4:2:0
Bit depth : 8 bits
Scan type : Progressive
Compression mode : Lossy
Bits/(Pixel*Frame) : 0.337
Stream size : 1.15 GiB (79%)
Writing library : XviD 64
Audio
ID : 1
Format : AC-3
Format/Info : Audio Coding 3
Mode extension : CM (complete main)
Format settings, Endianness : Big
Codec ID : 2000
Duration : 1h 33mn
Bit rate mode : Constant
Bit rate : 448 Kbps
Channel(s) : 6 channels
Channel positions : Front: L C R, Side: L R, LFE
Sampling rate : 48.0 KHz
Bit depth : 16 bits
Compression mode : Lossy
Stream size : 298 MiB (20%)
Alignment : Split accross interleaves
Interleave, duration : 42 ms (1.00 video frame)
Interleave, preload duration : 500 ms

Скриншот c названием фильма

Скриншоты

[Профиль] [ЛС]
Показать сообщения:    

Текущее время: Сегодня 20:43

Часовой пояс: GMT



Вы не можете начинать темы
Вы не можете отвечать на сообщения
Вы не можете редактировать свои сообщения
Вы не можете удалять свои сообщения
Вы не можете голосовать в опросах
Вы не можете прикреплять файлы к сообщениям
Вы не можете скачивать файлы