Близнецы / The Skeleton Twins (Крэйг Джонсон / Craig Johnson) [2014, США, Драма, комедия, DVDRip] Sub (rus, eng) + Original Eng

 
Автор Сообщение

TorrentFilm ®

Пол:

Стаж: 2 года

Сообщений: 7741



Награды: Нет

Торрент-статистика

Создавать темы 08-Янв-2015 00:15

[Цитировать]

Близнецы / The Skeleton Twins
Страна: США
Жанр: Драма, комедия
Год выпуска: 2014
Продолжительность: 01:33:06
Перевод: Отсутствует
Cубтитры: русские (Абасов Али), английские
Оригинальная аудиодорожка: английский
Режиссер: Крэйг Джонсон / Craig Johnson
В ролях: Кристен Уиг, Билл Хейдер, Люк Уилсон, Тай Буррелл, Бойд Холбрук, Кэтлин Роуз Перкинс, Джоанна Глисон, Йен Хайланд, Дженнифер ЛаФлер, Женевьева Адамс
Описание: Близнецы Мэгги и Майло не общались друг с другом сто лет, но, так уж случилось, что в один и тот же день и час они ухитрились чудом избежать смерти. Именно в минуту опасности оба пообещали изменить в жизни всё, что пошло не так, как им хотелось. Для Мэгги это пересмотр собственного брака с Лэнсом, а для гея Майло — попытка восстановить отношения со своим бывшим учителем Ричем, о чем они оба, в общем-то, стараются помалкивать. А потом брат и сестра осознают, что ключ к нормальной жизни для них — это еще и восстановление отношений друг с другом.
Сэмпл: http://sendfile.su/1070700
Качество видео: DVDRip
Формат видео: AVI
Видео: XVID, 640x272, 23,976 fps, 910 kbps
Аудио: MPEG Layer 3, 48 kHz, 2ch, 128 kbps
Формат субтитров: softsub (SRT)

MediaInfo

Complete name : C:\Users\user\Downloads\The skeleton twins\The.Skeleton.Twins.2014.DVDRip.avi
Format : AVI
Format/Info : Audio Video Interleave
File size : 698 MiB
Duration : 1h 33mn
Overall bit rate : 1 048 Kbps
Writing library : VirtualDub build 35491/release
Video
ID : 0
Format : MPEG-4 Visual
Format profile : Advanced Simple@L5
Format settings, BVOP : 2
Format settings, QPel : No
Format settings, GMC : No warppoints
Format settings, Matrix : Default (H.263)
Muxing mode : Packed bitstream
Codec ID : XVID
Codec ID/Hint : XviD
Duration : 1h 33mn
Bit rate : 910 Kbps
Width : 640 pixels
Height : 272 pixels
Display aspect ratio : 2.35:1
Frame rate : 23.976 fps
Color space : YUV
Chroma subsampling : 4:2:0
Bit depth : 8 bits
Scan type : Progressive
Compression mode : Lossy
Bits/(Pixel*Frame) : 0.218
Stream size : 606 MiB (87%)
Writing library : XviD 66
Audio
ID : 1
Format : MPEG Audio
Format version : Version 1
Format profile : Layer 3
Mode : Joint stereo
Mode extension : MS Stereo
Codec ID : 55
Codec ID/Hint : MP3
Duration : 1h 33mn
Bit rate mode : Constant
Bit rate : 128 Kbps
Channel(s) : 2 channels
Sampling rate : 48.0 KHz
Compression mode : Lossy
Stream size : 85.3 MiB (12%)
Alignment : Split accross interleaves
Interleave, duration : 42 ms (1.00 video frame)
Interleave, preload duration : 500 ms
Writing library : LAME3.99r
Encoding settings : -m j -V 4 -q 3 -lowpass 17 -b 128

Фрагмент субтитров

98
00:09:26,233 --> 00:09:27,799
Ничего, не волнуйся.
99
00:09:27,801 --> 00:09:29,334
Уже почти зажило.
100
00:09:29,336 --> 00:09:31,670
Я безумно рад наконец-то
познакомиться с тобой.
101
00:09:31,672 --> 00:09:33,738
Да, я тоже.
102
00:09:33,740 --> 00:09:37,075
Загадочный Майло. Во плоти.
103
00:09:37,077 --> 00:09:38,677
Ну, сейчас я в одежде, вообще-то,
104
00:09:38,679 --> 00:09:41,246
так что тебе придется
узнать меня получше
105
00:09:41,248 --> 00:09:42,747
перед тем как увидить мою плоть.
106
00:09:44,249 --> 00:09:46,585
Круто.. круто.
107
00:09:46,587 --> 00:09:48,353
Если тебе что нужно,
108
00:09:48,355 --> 00:09:50,755
не стесняйся попросить.
109
00:09:50,757 --> 00:09:52,090
У меня есть дела по дому.
110
00:09:52,092 --> 00:09:55,093
Да, хорошо, хорошо.
Спасибо, что приютили меня.
111
00:09:55,095 --> 00:09:57,062
Давай, не парься, амиго.
112
00:09:57,064 --> 00:09:59,130
И ты.. амиго
113
00:10:05,772 --> 00:10:08,012
Господи, Мэгги.
114
00:10:10,077 --> 00:10:14,613
Ну что, Майло, ты уже слышал,
чем занимается твоя сумасшедшаяя сестра?
115
00:10:14,615 --> 00:10:16,615
Он не знает?
116
00:10:16,617 --> 00:10:19,117
Твоя безумная сестра посещает..
117
00:10:19,719 --> 00:10:20,919
Давай барабанную дробь.
118
00:10:20,921 --> 00:10:23,655
Давай, громче.

Скриншот c названием фильма

Скриншоты

[Профиль] [ЛС]
Показать сообщения:    

Текущее время: Сегодня 22:40

Часовой пояс: GMT



Вы не можете начинать темы
Вы не можете отвечать на сообщения
Вы не можете редактировать свои сообщения
Вы не можете удалять свои сообщения
Вы не можете голосовать в опросах
Вы не можете прикреплять файлы к сообщениям
Вы не можете скачивать файлы