Близкое расстояние / Close Range (Айзек Флорентайн / Isaac Florentine) [2015, США, боевик, криминал, WEB-DLRip] DVO

 
Автор Сообщение

TorrentFilm ®

Пол:

Стаж: 1 год 11 месяцев

Сообщений: 7741



Награды: Нет

Торрент-статистика

Создавать темы 30-Ноя-2015 00:11

[Цитировать]

Близкое расстояние / Close Range
Страна: США
Жанр: боевик, криминал
Год выпуска: 2015
Продолжительность: 01:21:54
Перевод: Любительский (двухголосый закадровый) [Parovoz Production]
Cубтитры: нет
Режиссер: Айзек Флорентайн / Isaac Florentine
В ролях: Скотт Эдкинс, Ник Чинланд, Кэйтлин Китс, Джэйк Ла Ботц, Тони Перес, Мэдисон Лоулор, Хулиен Цезарио, Джимми Чхиу, Рэй Диас, Роберт Дилл...
Описание: Вызволив свою племянницу из лап могущественного картеля, Колтон Макреди вступает в беспощадный бой во имя спасения членов собственной семьи, ставших теперь мишенями для преступников. Его ферму, расположенную в провинциальной глубинке, осаждают жаждущие мести наёмники картеля, прихватившие с собой продажного местного шерифа с командой помощников, которые обеспечат гарантию того, что в ближайшее время к Макреди помощь не прибудет. Начинается безостановочный и методичный штурм фермы, и Колтону ради защиты своих близких и собственного спасения предстоит до конца пройти этот «марафон на выживание».



Качество видео: WEB-DLRip
Формат видео: AVI
Видео: 720x400 (1.80:1), 23.976 fps, XviD build 50 ~2195 kbps avg, 0.32 bit/pixel
Аудио: 48 kHz, AC3 Dolby Digital, 2/0 (L,R) ch, ~192 kbps

MediaInfo

Format : AVI
Format/Info : Audio Video Interleave
File size : 1.37 GiB
Duration : 1h 21mn
Overall bit rate : 2 397 Kbps
Writing application : VirtualDubMod 1.5.10.3 | www.virtualdub-fr.org || (build 2550/release)
Writing library : VirtualDubMod build 2550/release
Video
ID : 0
Format : MPEG-4 Visual
Format profile : Advanced Simple@L5
Format settings, BVOP : 1
Format settings, QPel : No
Format settings, GMC : No warppoints
Format settings, Matrix : Default (MPEG)
Codec ID : XVID
Codec ID/Hint : XviD
Duration : 1h 21mn
Bit rate : 2 195 Kbps
Width : 720 pixels
Height : 400 pixels
Display aspect ratio : 16:9
Frame rate : 23.976 fps
Color space : YUV
Chroma subsampling : 4:2:0
Bit depth : 8 bits
Scan type : Progressive
Compression mode : Lossy
Bits/(Pixel*Frame) : 0.318
Stream size : 1.26 GiB (92%)
Writing library : XviD 1.2.1 (UTC 2008-12-04)
Audio
ID : 1
Format : AC-3
Format/Info : Audio Coding 3
Mode extension : CM (complete main)
Format settings, Endianness : Big
Codec ID : 2000
Duration : 1h 21mn
Bit rate mode : Constant
Bit rate : 192 Kbps
Channel(s) : 2 channels
Channel positions : Front: L R
Sampling rate : 48.0 KHz
Bit depth : 16 bits
Compression mode : Lossy
Stream size : 112 MiB (8%)
Alignment : Split accross interleaves
Interleave, duration : 42 ms (1.00 video frame)
Interleave, preload duration : 500 ms

Скриншот c названием фильма

Скриншоты

[Профиль] [ЛС]
Показать сообщения:    

Текущее время: Сегодня 09:56

Часовой пояс: GMT



Вы не можете начинать темы
Вы не можете отвечать на сообщения
Вы не можете редактировать свои сообщения
Вы не можете удалять свои сообщения
Вы не можете голосовать в опросах
Вы не можете прикреплять файлы к сообщениям
Вы не можете скачивать файлы