Близкий враг (Александр Атанесян) [2010, Россия, драма, криминал, BDRip 720p]

 
Автор Сообщение

painkiller ®

Стаж: 2 года 3 месяца

Сообщений: 582



Награды: Нет

Торрент-статистика

Создавать темы 15-Авг-2014 01:09

[Цитировать]

Близкий враг- Страна: Россия
Жанр: драма, криминал
Год выпуска: 2010
Продолжительность: 01:25:45-Перевод: Не требуется
Cубтитры: отсутствуют-Режиссер: Александр Атанесян
В ролях: Николай Добрынин, Дмитрий Дюжев, Александр Головин, Сергей Греков, Роман Костомаров, Андрей Панин, Нина Подольская, Егор Пазенко, Рамиль Сабитов, Евгения Трофимова-Описание: Жизнь молодой счастливой девушки в одночасье превращается в руины. Ее горячо любимого мужа жестоко убивают какие-то подонки. Горе поселяется в душе героини. Что делать и как жить дальше? Эти вопросы она задает себе постоянно. Но в какой-то момент ее вдруг одолевает непреодолимая жажда мести. Девушка решает найти убийц и наказать их.-IMDB | КиноПоиск | Сэмпл-Качество видео: BDRip 720p | исх. Близкий враг (2010) Blu-ray 1080p AVC DTS-HD 5.1
Формат видео: MKV-Видео: AVC, 1280x554 (2.35:1), 24.000 fps, 6 100 Kbps (0.358 bit/pixel)
Аудио: 48 kHz, DTS, 3/2 (L,C,R,l,r) + LFE ch, ~1152.00 kbps avg | Не требуется-Формат субтитров: отсутствуют
Навигация по главам: Присутствует-

MediaInfo

General
Unique ID : 203335311695809071606684676888540575079 (0x98F8F4E0C398290B97FC30CD05797567)
Complete name : D:\Фильмы\Близкий.враг.720p.Rus.HDCLUB-madoff.mkv
Format : Matroska
Format version : Version 2
File size : 4.34 GiB
Duration : 1h 25mn
Overall bit rate : 7 247 Kbps
Movie name : Близкий враг (2010) - Release for HDCLUB
Encoded date : UTC 2013-09-27 15:00:31
Writing application : mkvmerge v5.7.0 ('The Whirlwind') built on Jul 8 2012 20:08:51
Writing library : libebml v1.2.3 + libmatroska v1.3.0
Video
ID : 1
Format : AVC
Format/Info : Advanced Video Codec
Format profile : High@L4.1
Format settings, CABAC : Yes
Format settings, ReFrames : 11 frames
Codec ID : V_MPEG4/ISO/AVC
Duration : 1h 25mn
Bit rate : 6 100 Kbps
Width : 1 280 pixels
Height : 554 pixels
Display aspect ratio : 2.35:1
Frame rate mode : Constant
Frame rate : 24.000 fps
Color space : YUV
Chroma subsampling : 4:2:0
Bit depth : 8 bits
Scan type : Progressive
Bits/(Pixel*Frame) : 0.358
Stream size : 3.56 GiB (82%)
Writing library : x264 core 130 r2273 b3065e6
Encoding settings : cabac=1 / ref=11 / deblock=1:-3:-3 / analyse=0x3:0x113 / me=umh / subme=11 / psy=1 / psy_rd=1.00:0.00 / mixed_ref=1 / me_range=48 / chroma_me=1 / trellis=2 / 8x8dct=1 / cqm=0 / deadzone=21,11 / fast_pskip=0 / chroma_qp_offset=-2 / threads=12 / lookahead_threads=2 / sliced_threads=0 / nr=0 / decimate=1 / interlaced=0 / bluray_compat=0 / constrained_intra=0 / bframes=9 / b_pyramid=2 / b_adapt=2 / b_bias=0 / direct=3 / weightb=1 / open_gop=0 / weightp=2 / keyint=250 / keyint_min=23 / scenecut=40 / intra_refresh=0 / rc_lookahead=40 / rc=2pass / mbtree=0 / bitrate=6100 / ratetol=1.0 / qcomp=0.60 / qpmin=0 / qpmax=69 / qpstep=4 / cplxblur=20.0 / qblur=0.5 / vbv_maxrate=62500 / vbv_bufsize=78125 / nal_hrd=none / ip_ratio=1.40 / pb_ratio=1.30 / aq=1:0.80
Language : English
Default : Yes
Forced : No
Audio
ID : 2
Format : DTS
Format/Info : Digital Theater Systems
Mode : 16
Format settings, Endianness : Big
Codec ID : A_DTS
Duration : 1h 25mn
Bit rate mode : Constant
Bit rate : 1 152 Kbps
Channel count : 6 channels
Channel positions : Front: L C R, Side: L R, LFE
Sampling rate : 48.0 KHz
Bit depth : 16 bits
Compression mode : Lossy
Stream size : 707 MiB (16%)
Language : Russian
Default : Yes
Forced : No
Menu
00:00:00.000 : :00:00:00.000
00:11:08.875 : :00:11:08.875
00:16:24.250 : :00:16:24.250
00:21:14.458 : :00:21:14.458
00:28:02.208 : :00:28:02.208
00:33:18.417 : :00:33:18.417
00:39:20.875 : :00:39:20.875
00:47:21.500 : :00:47:21.500
00:56:42.250 : :00:56:42.250
01:09:35.167 : :01:09:35.167
01:14:49.125 : :01:14:49.125
01:20:44.458 : :01:20:44.458

Дополнительно

Сохранены оригинальные чаптеры как на Blu-Ray
by madoff

Скриншоты

[Профиль] [ЛС]
Показать сообщения:    

Текущее время: Сегодня 08:50

Часовой пояс: GMT



Вы не можете начинать темы
Вы не можете отвечать на сообщения
Вы не можете редактировать свои сообщения
Вы не можете удалять свои сообщения
Вы не можете голосовать в опросах
Вы не можете прикреплять файлы к сообщениям
Вы не можете скачивать файлы