Блаженная (Сергей Струсовский) [2007, Россия, Украина, драма, притча, DVD9]

 
Автор Сообщение

TorrentFilm ®

Пол:

Стаж: 2 года

Сообщений: 7741



Награды: Нет

Торрент-статистика

Создавать темы 01-Янв-2016 00:07

[Цитировать]

Блаженная
Страна: Россия, Украина
Студия: "Абсолютфильм" при участии Одесской киностудии
Жанр: драма, притча
Год выпуска: 2007
Продолжительность: 01:31:53
Cубтитры: нет
Режиссер: Сергей Струсовский
В ролях: Карина Разумовская, Даниил Страхов, Вячеслав Жолобов, Галина Яцкина, Александр Масалов, Алексей Вертинский, Виктор Тереля, Ада Роговцева, Роман Хардиков, Владимир Гусев, Ксения Караева, Андрей Бирин, Оксана Бурлай-Питерова, Светлана Никифорова, Алиса Близнец, Ксения Кожухова, Анатолий Падука, Василий Фролов, Андрей Снежко, Олег Соколовский, Сергей Куцевалов, Лариса Хонич, Володя Романюк, Андрюша Дегтяренко, Маша Филипенко, Ольга Равицкая, Бенито Овусо, Анна Чурина, Кинья Исламгулова, Елена Михайлова, Андрей Тубелис, Михаил Крылов, Даня Оганджанян, Татьяна Коновалова, Татьяна Мухина, Андрей Молотков, Тамара Спиричева
Описание: Юная Александра, открытая, доверчивая, чистая душой, про таких говорят - не от мира сего, приезжает в Москву к деду-олигарху. Она - его единственная наследница. Дед хочет, чтобы она окончила налоговую академию, а Саша мечтает только об одном - рисовать, стать художником. Однако, Москва - город жестокий, и мечты умирают и становятся пеплом...
Доп. информация:
Сценарий: Виктория Баум, Сергей Струсовский
Оператор: Григорий Яблочников
Художники: Александр Холодцов, Залина Бидеева
Композитор: Александр Пантыкин
Стихи: Сергей Струсовский
Вокал: Мария Пьянова (песня "Не бойся")
Ограничения на просмотр: зрителям, достигшим 16 лет

Бонусы: мультфильм Сергея Струсовского "Колокольчик", посвященный Оптинским мученикам Ферапонту, Трофиму и Василию, убиенным в Светлое Христово Воскресение 1993 года (06:14:00); "Смотрите на DVD"
Меню: есть, анимированное, озвученное
Тип релиза: DVD9
Контейнер: DVD-Video
Видео: PAL 16:9 (720x576) VBR Auto Pan&Scan (анаморф), 25 fps, 8270 kbps
Аудио 1: Russian (Dolby AC3, 48 kHz, 6 ch, 448 kbps)
Аудио 2: Russian (Dolby AC3, 48 kHz, 2 ch, 192 kbps)
Аудио 3: Russian (DTS, 48 kHz, 6 ch, 768 kbps)

MediaInfo

Полное имя : F:\Blagennaja.2008.DVD-9\VIDEO_TS\VTS_03_1.VOB
Формат : MPEG-PS
Размер файла : 1024 Мбайт
Продолжительность : 14 м.
Общий поток : 9861 Кбит/сек
Видео
Идентификатор : 224 (0xE0)
Формат : MPEG Video
Версия формата : Version 2
Профиль формата : Main@Main
Параметр BVOP формата : Да
Параметр матрицы формата : Выборочная
Продолжительность : 14 м.
Вид битрейта : Переменный
Битрейт : 8271 Кбит/сек
Максимальный битрейт : 8401 Кбит/сек
Ширина : 720 пикселей
Высота : 576 пикселей
Соотношение сторон : 16:9
Частота кадров : 25,000 кадров/сек
Стандарт вещания : PAL
Цветовое пространство : YUV
Субдискретизация насыщенности : 4:2:0
Битовая глубина : 8 бит
Тип развёртки : Чересстрочная
Порядок развёртки : Нижнее поле первое
Метод сжатия : С потерями
Бит/(Пиксели*Кадры) : 0.798
Размер потока : 859 Мбайт (84%)
Аудио #1
Идентификатор : 189 (0xBD)-128 (0x80)
Формат : AC-3
Формат/Информация : Audio Coding 3
Расширение режима : CM (complete main)
Режим смешивания : DVD-Video
Продолжительность : 14 м.
Вид битрейта : Постоянный
Битрейт : 448 Кбит/сек
Каналы : 6 каналов
Расположение каналов : Front: L C R, Side: L R, LFE
Частота : 48,0 КГц
Битовая глубина : 16 бит
Метод сжатия : С потерями
Задержка видео : -80 мс.
Размер потока : 46,5 Мбайт (5%)
Аудио #2
Идентификатор : 189 (0xBD)-129 (0x81)
Формат : AC-3
Формат/Информация : Audio Coding 3
Расширение режима : CM (complete main)
Режим смешивания : DVD-Video
Продолжительность : 14 м.
Вид битрейта : Постоянный
Битрейт : 192 Кбит/сек
Каналы : 2 канала
Расположение каналов : Front: L R
Частота : 48,0 КГц
Битовая глубина : 16 бит
Метод сжатия : С потерями
Задержка видео : -80 мс.
Размер потока : 19,9 Мбайт (2%)
Аудио #3
Идентификатор : 189 (0xBD)-138 (0x8A)
Формат : DTS
Формат/Информация : Digital Theater Systems
Режим смешивания : DVD-Video
Продолжительность : 14 м.
Вид битрейта : Постоянный
Битрейт : 755 Кбит/сек
Каналы : 6 каналов
Расположение каналов : Front: L C R, Side: L R, LFE
Частота : 48,0 КГц
Битовая глубина : 24 бит
Метод сжатия : С потерями
Задержка видео : -80 мс.
Размер потока : 78,3 Мбайт (8%)

DVDInfo

Title:
Size: 7.04 Gb ( 7 380 164 KBytes ) - DVD-9
Enabled regions: 1, 2, 3, 4, 5, 6, 7, 8
VTS_01 :
Play Length: 00:00:15
Video: PAL 4:3 (720x576) VBR
Audio:
Russian (Dolby AC3, 2 ch)
VTS_02 :
Play Length: 00:00:02
Video: PAL 4:3 (720x576) VBR
Audio:
Russian (Dolby AC3, 2 ch)
Russian (Dolby AC3, 2 ch)
Russian (Dolby AC3, 2 ch)
VTS_03 :
Play Length: 01:31:53
Video: PAL 16:9 (720x576) VBR, Auto Pan&Scan
Audio:
Russian (Dolby AC3, 6 ch)
Russian (Dolby AC3, 2 ch)
Russian (DTS, 5 ch)
VTS_04 :
Play Length: 00:06:14
Video: PAL 16:9 (720x576) VBR, Auto Pan&Scan
Audio:
Russian (Dolby AC3, 6 ch)
Russian (Dolby AC3, 2 ch)
Russian (DTS, 5 ch)
VTS_05 :
Play Length: 00:02:26
Video: PAL 4:3 (720x576) VBR
Audio:
Russian (Dolby AC3, 2 ch)
Russian (Dolby AC3, 2 ch)
Russian (Dolby AC3, 2 ch)
VTS_06 :
Play Length: 00:02:37
Video: PAL 16:9 (720x576) VBR, Auto Pan&Scan
Audio:
Russian (Dolby AC3, 2 ch)
Russian (Dolby AC3, 2 ch)
Russian (Dolby AC3, 2 ch)
VTS_07 :
Play Length: 00:02:12
Video: PAL 4:3 (720x576) VBR
Audio:
Russian (Dolby AC3, 2 ch)
Russian (Dolby AC3, 2 ch)
Russian (Dolby AC3, 2 ch)
Menu Video:
PAL 4:3 (720x576) VBR
Menu Subtitles:
Not specified
Menu English Language Unit :
Root Menu
Audio Menu
Chapter (PTT) Menu

Сканы обложки и диска

Скриншоты меню

Скриншоты доп. материалов

Скриншоты (без учета анаморфа)

[Профиль] [ЛС]
Показать сообщения:    

Текущее время: Сегодня 10:46

Часовой пояс: GMT



Вы не можете начинать темы
Вы не можете отвечать на сообщения
Вы не можете редактировать свои сообщения
Вы не можете удалять свои сообщения
Вы не можете голосовать в опросах
Вы не можете прикреплять файлы к сообщениям
Вы не можете скачивать файлы