Благоприятные обстоятельства / Palankios aplinkybes (Антанас Янаускас) [1989, мультфильм, DVDRip]

 
Автор Сообщение

TorrentFilm ®

Пол:

Стаж: 2 года

Сообщений: 7741



Награды: Нет

Торрент-статистика

Создавать темы 01-Янв-2016 00:25

[Цитировать]

Благоприятные обстоятельства / Palankios aplinkybes
Страна: СССР
Производство: Литовская киностудия
Жанр: мультфильм
Продолжительность: 00:07:52
Год выпуска: 1989
Перевод: Не требуется
Русские субтитры: нет
Режиссёр: Антанас Янаускас
Описание: Два сюжета о человеке, который всегда находит выход из любой ситуации.
Кинопоиск
Качество: DVDRip
Формат: AVI
Видео: 624x480 (1.30:1), 25 fps, XviD MPEG-4 ~2001 kbps avg, 0.267 bit/pixel
Аудио: 48.0 kHz, MPEG Layer 3, 2 ch, ~128.00 kbps avg
Субтитры: Отсутствуют

Подробные технические данные

GeneralComplete name : E:\1\мультики\Благоприятные обстоятельства 1989.aviFormat : AVIFormat/Info : Audio Video InterleaveFile size : 120 MiBDuration : 7mn 52sOverall bit rate : 2 139 KbpsWriting application : VirtualDubMod 1.5.10.3 | www.virtualdub-fr.org || (build 2550/release)Writing library : VirtualDubMod build 2550/release
VideoID : 0Format : MPEG-4 VisualFormat profile : Advanced Simple@L5Format settings, BVOP : 2Format settings, QPel : NoFormat settings, GMC : No warppointsFormat settings, Matrix : Default (H.263)Codec ID : XVIDCodec ID/Hint : XviDDuration : 7mn 52sBit rate : 2 001 KbpsWidth : 624 pixelsHeight : 480 pixelsDisplay aspect ratio : 4:3Frame rate : 25.000 fpsColor space : YUVChroma subsampling : 4:2:0Bit depth : 8 bitsScan type : ProgressiveCompression mode : LossyBits/(Pixel*Frame) : 0.267Stream size : 113 MiB (94%)Writing library : XviD 1.2.1 (UTC 2008-12-04)
AudioID : 1Format : MPEG AudioFormat version : Version 1Format profile : Layer 3Codec ID : 55Codec ID/Hint : MP3Duration : 7mn 52sBit rate mode : ConstantBit rate : 128 KbpsChannel count : 2 channelsSampling rate : 48.0 KHzCompression mode : LossyStream size : 7.21 MiB (6%)Alignment : Aligned on interleavesInterleave, duration : 40 ms (1.00 video frame)Interleave, preload duration : 504 msWriting library : LAME3.99rEncoding settings : -m s -V 4 -q 2 -lowpass 17 -b 128

Скриншоты

[Профиль] [ЛС]
Показать сообщения:    

Текущее время: Сегодня 18:08

Часовой пояс: GMT



Вы не можете начинать темы
Вы не можете отвечать на сообщения
Вы не можете редактировать свои сообщения
Вы не можете удалять свои сообщения
Вы не можете голосовать в опросах
Вы не можете прикреплять файлы к сообщениям
Вы не можете скачивать файлы