Благая весть / La buena nueva (Елена Таберна / Helena Taberna) [2008, Испания, драма, исторический, военный, DVDRip] + Sub Rus + Original Spa

 
Автор Сообщение

TorrentFilm ®

Пол:

Стаж: 2 года

Сообщений: 7741



Награды: Нет

Торрент-статистика

Создавать темы 18-Янв-2015 00:00

[Цитировать]

Благая весть / La buena nueva
Страна: Испания
Жанр: драма, исторический, военный
Год выпуска: 2008
Продолжительность: 01:43:09
Перевод: Субтитры
Cубтитры: русские
Оригинальная аудиодорожка: испанский
Режиссер: Елена Таберна / Helena Taberna
В ролях: Унакс Угальде, Барбара Гоенага, Гильермо Толедо, Горка Агинагальде, Хосеба Апаолаза, Микель Тельо, Марибель Салас, Клара Бадиола
Описание: Молодой священник Мигель, незадолго до начала гражданской войны в Испании получивший приход в поселке в горах Наварры, вынужден на протяжении трех лет войны защищать простых людей от репрессий мятежников.
Доп. информация: Рип найден в сети Интернет. Субтитры - petpav
Сэмпл: http://sendfile.su/1074246
Качество видео: DVDRip
Формат видео: AVI
Видео: XVID, 576x320, 1.18 Gb, 25.000 fps, 1436 Kbps
Аудио: MP3, 44.1 KHz, 192 Kbps, 2 channels
Формат субтитров: softsub (SRT)

Образец субтитров

1
00:00:37,360 --> 00:00:41,990
Основано на реальных событиях.
2
00:00:45,120 --> 00:00:52,993
БЛАГАЯ ВЕСТЬ
3
00:01:40,800 --> 00:01:41,676
Плохо.
4
00:02:32,360 --> 00:02:33,634
21 - 21.
5
00:02:38,840 --> 00:02:40,007
Не думайте, что я позволю вам победить.
6
00:02:41,640 --> 00:02:43,119
Разговор истощает вашу энергию.
7
00:02:43,600 --> 00:02:45,113
Я не играл в течение года.
8
00:02:45,520 --> 00:02:47,158
Как вы думаете, почему
я посылал вас в Рим?
9
00:03:15,760 --> 00:03:17,557
Никогда не доверяйте левше!
10
00:03:18,000 --> 00:03:19,149
Это - вопрос ловкости.
11
00:03:20,280 --> 00:03:23,829
Как и то, что вы в ней скоро
будете нуждаться.
12
00:03:44,080 --> 00:03:46,310
Бьюсь об заклад, что вы готовы
к необычной работе.
13
00:03:46,920 --> 00:03:48,433
Вы можете повторить это.
14
00:03:48,600 --> 00:03:49,794
Хорошо. У меня есть
15
00:03:49,960 --> 00:03:52,315
особый приход для вас.

MediaInfo

Общее
Полное имя : D:\Films\La.buena.nueva.2008.avi
Формат : AVI
Формат/Информация : Audio Video Interleave
Размер файла : 1,18 Гбайт
Продолжительность : 1 ч. 43 м.
Общий поток : 1636 Кбит/сек
Программа кодирования : VirtualDubMod 1.5.4.1 (build 2178/release)
Библиотека кодирования : VirtualDubMod build 2178/release
Видео
Идентификатор : 0
Формат : MPEG-4 Visual
Профиль формата : Advanced Simple@L5
Параметр BVOP формата : 2
Параметр QPel формата : Нет
Параметр GMC формата : Без точки перехода
Параметр матрицы формата : Default (H.263)
Режим смешивания : Сжатый битовый поток
Идентификатор кодека : XVID
Идентификатор кодека/Подсказка : XviD
Продолжительность : 1 ч. 43 м.
Битрейт : 1436 Кбит/сек
Ширина : 576 пикселей
Высота : 320 пикселей
Соотношение сторон : 16:9
Частота кадров : 25,000 кадров/сек
Цветовое пространство : YUV
Субдискретизация насыщенности : 4:2:0
Битовая глубина : 8 бит
Тип развёртки : Прогрессивная
Метод сжатия : С потерями
Бит/(Пиксели*Кадры) : 0.312
Размер потока : 1,03 Гбайт (88%)
Библиотека кодирования : XviD 1.2.1 (UTC 2008-12-04)
Аудио
Идентификатор : 1
Формат : MPEG Audio
Версия формата : Version 1
Профиль формата : Layer 3
Режим : Joint stereo
Расширение режима : MS Stereo
Идентификатор кодека : 55
Идентификатор кодека/Подсказка : MP3
Продолжительность : 1 ч. 42 м.
Вид битрейта : Постоянный
Битрейт : 192 Кбит/сек
Каналы : 2 канала
Частота : 44,1 КГц
Метод сжатия : С потерями
Размер потока : 141 Мбайт (12%)
Выравнивание : Разделение по промежуткам
Продолжительность промежутка : 48 мс. (1,20 видеокадр)
Время предзагрузки промежутка : 528 мс.

Скриншот c названием фильма

Скриншоты

Мои раздачи

Врач эмира / Médecin de l'Émir http://torrentfilm.net/forum/viewtopic.php?t=4841826
Карандаш плотника / El lápiz del carpintero http://torrentfilm.net/forum/viewtopic.php?t=4623388
Луна волков / Luna de lobos http://torrentfilm.net/forum/viewtopic.php?t=4626923
Маршал ада / El mariscal del infierno / Devil's Possessed http://torrentfilm.net/forum/viewtopic.php?t=4752518
Прогулка с любовью и смертью / A Walk with Love and Death http://torrentfilm.net/forum/viewtopic.php?t=4670921
[Профиль] [ЛС]

Создавать темы 06-Авг-2015 22:48 (спустя 6 месяцев 19 дней)

Топик был перенесен из форума Фильмы до 2014 года в форум Фильмы до 2012 года
sergej644
 

Создавать темы 12-Июн-2016 08:51 (спустя 1 год 4 месяца)

Топик был перенесен из форума Фильмы 2011 года в форум Фильмы 2006-2008 года
Russian Mafia
 
Кто просматривает тему:

Показать сообщения:    

Текущее время: Сегодня 06:27

Часовой пояс: GMT



Вы не можете начинать темы
Вы не можете отвечать на сообщения
Вы не можете редактировать свои сообщения
Вы не можете удалять свои сообщения
Вы не можете голосовать в опросах
Вы не можете прикреплять файлы к сообщениям
Вы не можете скачивать файлы