Би-2 - Три концерта (2013) WEB-DL [1080p]

 
Автор Сообщение

sergej644 ®

Пол:

Стаж: 4 года 11 месяцев

Сообщений: 6046

Откуда: Soviet Union



Награды: Нет

Торрент-статистика

Создавать темы 27-Окт-2014 09:05

[Цитировать]

-Би-2 - Три концерта- Выпущено: Россия, «Firecat Films» / «Planeta RU»
Год выпуска: 2013
Жанр: Rock
Режиссер: Даниил Сальхов
Состав: Шура Би-2, Лёва Би-2, Андрей Звонков, Максим Андрющенко, Борис Лифшиц, Ян Николенко
Описание:
В данной раздаче представлены концерты в Full HD. «Долой унылую телевизионщину — даешь клевое концертное видео!». Сказал Даниил Сальхов (режиссер). Именно так, в двух (хорошо, в семи) словах можно описать наш новый проект — первый в истории группы Би-2 тройной DVD. Этот год стал для нас невероятно событийным и плодотворным, в том числе и в плане концертов — впечатлениями, эмоциями и энергетикой которых мы очень хотим поделиться со всеми поклонниками Би-2. «Мы хотим вас пригласить в замечательное путешествие, в котором мы провели и проводим весь 2013 год.» Сказал Шура Би-2. Проиллюстрировать это «путешествие» каким-то одним концертом просто невозможно — слишком они разные. И по звучанию, и по общей атмосфере. Именно поэтому мы решили выпустить тройной DVD, в который войдет запись трех абсолютно не похожих между собой концертов Би-2 — музыканты предстанут в совершенно разных, но уже хорошо знакомых вам ипостасях — трех измерениях: электрическом, акустическом и с оркестром.-Продолжительность: 02:05:13 + 01:32:01 + 02:14:48
Качество видео: WEB-DL
Видеокодек: MPEG-4 AVC/H.264
Битрейт видео: ~9975 Кбит/сек
Размер кадра: 1920x1080
Аудиокодек: AAC 2.0 (стерео)
Битрейт аудио: ~317 Кбит/сек

MediaInfo

Общее
Формат                                   : MPEG-4
Профиль формата                          : Base Media / Version 2
Идентификатор кодека                     : mp42
Размер файла                             : 9,01 Гбайт
Продолжительность                        : 2 ч. 5 м.
Режим общего битрейта                    : Переменный
Общий поток                              : 10,3 Мбит/сек
Дата кодирования                         : UTC 2014-05-28 11:50:57
Дата пометки                             : UTC 2014-05-28 12:09:57
©TIM                                     : 01:00:00:00
©TSC                                     : 25
©TSZ                                     : 1
Видео
Идентификатор                            : 1
Формат                                   : AVC
Формат/Информация                        : Advanced Video Codec
Профиль формата                          : [url=mailto:High@L4.2]High@L4.2[/url]
Параметр CABAC формата                   : Да
Параметр ReFrames формата                : 3 кадра
Идентификатор кодека                     : avc1
Идентификатор кодека/Информация          : Advanced Video Coding
Продолжительность                        : 2 ч. 5 м.
Битрейт                                  : 9975 Кбит/сек
Ширина                                   : 1920 пикселей
Высота                                   : 1080 пикселей
Соотношение сторон                       : 16:9
Режим частоты кадров                     : Переменный
Частота кадров                           : 25,000 кадров/сек
Минимальная частота кадров               : 25,000 кадров/сек
Максимальная частота кадров              : 25,025 кадров/сек
Стандарт вещания                         : PAL
Цветовое пространство                    : YUV
Субдискретизация насыщенности            : 4:2:0
Битовая глубина                          : 8 бит
Тип развёртки                            : Прогрессивная
Бит/(Пиксели*Кадры)                      : 0.192
Размер потока                            : 8,73 Гбайт (97%)
Язык                                     : English
Дата кодирования                         : UTC 2014-05-28 11:50:58
Дата пометки                             : UTC 2014-05-28 11:50:58
Основные цвета                           : BT.709
Характеристики трансфера                 : BT.709
Коэффициенты матрицы                     : BT.709
mdhd_Duration                            : 7514160
Аудио
Идентификатор                            : 2
Формат                                   : AAC
Формат/Информация                        : Advanced Audio Codec
Профиль формата                          : LC
Идентификатор кодека                     : 40
Продолжительность                        : 2 ч. 5 м.
Продолжительность оригинала              : 2 ч. 5 м.
Вид битрейта                             : Переменный
Битрейт                                  : 317 Кбит/сек
Максимальный битрейт                     : 416 Кбит/сек
Каналы                                   : 2 канала
Расположение каналов                     : Front: L R
Частота                                  : 48,0 КГц
Метод сжатия                             : С потерями
Размер потока                            : 284 Мбайт (3%)
Размер потока оригинала                  : 284 Мбайт (3%)
Язык                                     : English
Дата кодирования                         : UTC 2014-05-28 11:50:58
Дата пометки                             : UTC 2014-05-28 11:50:58
mdhd_Duration                            : 7514198

Концерт «Spirit» в «Stadium Live»

Концерт «Spirit» в «Stadium Live»- Концерт который был записан в марте в московском клубе Stadium Live — это было финальное шоу масштабного и мощнейшего по энергетике Spirit Tour`a, охватившего более 70 городов.

Сэмпл: Скачать

Треклист

Треклист:
01. Оптимист
02. Дурочка
03. Девушки
04. Революция
05. Молитва
06. Вечная призрачная встречная
07. Реки любви
08. Серебро
09. Блеф
10. Заноза
11. 1000 миль
12. Безвоздушная тревога
13. Скользкие улицы (акустика)
14. Муза
15. Варвара
16. Моя любовь
17. Мой рок-н-ролл (+ поппури песен русского рока от Шуры и представление участников группы)
18. Bowie
19. Последний герой
20. Полковнику никто не пишет
21. Её глаза

Предварительный просмотр на YouTube


Квартирник (акустика) в театре «Содружество актеров Таганки»

Квартирник (акустика) в театре «Содружество актеров Таганки»- В данной раздаче представлена запись одного из «Квартирников» БИ-2 — первого московского акустического концерта, который состоялся 17 мая 2013 года в театре «Содружество актеров Таганки». Это второй из 3-х концертов (акустический), представленных в новом тройном DVD группы.

Сэмпл: Скачать

Треклист

01. Варвара
02. Девушки
03. Ёлочный сок
04. И корабль плывёт
05 Скользкие улицы
06. Молитва
07. Держаться за воздух
08. Научи меня быть счастливым
09. Теряю голову
10. Серебро
11. Реки любви
12. Достучаться до небес
13. Smile
14. Шамбала
15. Ангелы
16. Моя любовь
17. Мой рок-н-ролл (+ представление участников группы)

Предварительный просмотр на YouTube


Концерт с симфоническим оркестром в «Crocus City Hall»

Концерт с симфоническим оркестром в «Crocus City Hall»
23 ноября 2013 года в «Крокус Сити Холле» прошло выступление БИ-2 с симфоническим оркестром. Концерт по своей сути стал презентацией второго "симфонического" альбома группы "БИ-2 & Prague Metropolitan Symphonic Orchestra". Это третий и последний из 3-х концертов, представленных в новом тройном DVD группы.

Сэмпл: Скачать

Треклист

01. Её глаза
02. Дурочка
03. Девушки
04. Bowie
05. Мой рок-н-ролл (feat. Юлия Чичерина)
06. Падает снег (feat. Юлия Чичерина)
07. Моя любовь (feat. Тамара Гвердцители)
08. Безвоздушная тревога (feat. Тамара Гвердцители)
09. Школа танцев (feat. Настя Полева)
10. Блюз (feat. Настя Полева)
11. Достучаться до небес (feat. Владимир Пресняков)
12. Варвара
13. Молитва
14. Последний герой
15. И корабль плывет…
16. Вечная призрачная встречная
17. Реки любви
18. Бездорожье (feat. Маша Макарова)
19. Муза
20. Шамбала (feat. Елена Кауфман)
21. Небо без края (feat. Инна Желанная)
22. 1000 миль
23. Бегущий по лезвию бритвы (feat. Варя Демидова)
24. Скользкие улицы (feat. Ренарс Кауперс)
25. Касаясь земли (feat. Ренарс Кауперс feat. Найк Борзов)
26. Волки
27. Полковнику никто не пишет
28. Серебро

Предварительный просмотр на YouTube



--
[Профиль] [ЛС]

Создавать темы 13-Авг-2015 12:04 (спустя 9 месяцев 17 дней)

Топик был перенесен из форума Концерты в форум Наши концерты
sergej644
 
Кто просматривает тему:

Показать сообщения:    

Текущее время: Сегодня 14:53

Часовой пояс: GMT



Вы не можете начинать темы
Вы не можете отвечать на сообщения
Вы не можете редактировать свои сообщения
Вы не можете удалять свои сообщения
Вы не можете голосовать в опросах
Вы не можете прикреплять файлы к сообщениям
Вы не можете скачивать файлы