Би-2 - Нашествие 2015 (2015) WEBRip 720p

 
Автор Сообщение

sergej644 ®

Пол:

Стаж: 4 года 11 месяцев

Сообщений: 6041

Откуда: Soviet Union



Награды: Нет

Торрент-статистика

Создавать темы 09-Июл-2015 18:04

[Цитировать]

Информация о фильме
Название: Би-2 - Нашествие 2015
Год выхода: 2015
Жанр: Концерт
О фильме:
Группа «Би-2» - настоящий ветеран Главного приключения лета. Команда была участником самого первого «Нашествия» и с тех пор регулярно приезжает на фестиваль.
По словам одного из солистов Шура Би-2: «Мы это назвали, скажем, так… «16+ Тур», продолжение версии «Нашествия». Мы попытаемся перенести то, что мы почти уже год возим в туре. Это наша программа «16+». Свет... Будет наша световая декорация и песни. Естественно, формат сольного выступления - он немножко длиннее, поэтому на «Нашествии» он будет немного укороченным. Но это достаточно длинный сет… те, кто были у нас в «Стадиуме» на концерте и вообще были в разных городах – это будет что-то такое. Только более масштабное»
Страна: Россия
Продолжительность: 01:23:54
Файл
Качество: WEBRip 720p
Видео: MPEG-4 AVC, 1952 Кбит/с, 1280x720, 29.97 кадр/с
Звук: AAC, 2 ch, 192 Кбит/с

MediaInfo:

General
Complete name : G:Би2 - Нашествие 2015 FilmRus.mp4
Format : MPEG-4
Format profile : Base Media / Version 2
Codec ID : mp42
File size : 1.26 GiB
Duration : 1h 23mn
Overall bit rate mode : Variable
Overall bit rate : 2 147 Kbps
Encoded date : UTC 2015-07-06 01:03:03
Tagged date : UTC 2015-07-06 01:03:03
gsst : 0
gstd : 5034711
gssd : BADC2964BHM1436262388125459
gshh : r11---sn-n8v7sner.googlevideo.com
Video #1
ID : 1
Format : AVC
Format/Info : Advanced Video Codec
Format profile : High@L3.1
Format settings, CABAC : Yes
Format settings, ReFrames : 1 frame
Format settings, GOP : M=1, N=60
Codec ID : avc1
Codec ID/Info : Advanced Video Coding
Duration : 1h 23mn
Bit rate : 1 952 Kbps
Maximum bit rate : 5 386 Kbps
Width : 1 280 pixels
Height : 720 pixels
Display aspect ratio : 16:9
Frame rate mode : Variable
Frame rate : 29.970 fps
Minimum frame rate : 29.970 fps
Maximum frame rate : 30.273 fps
Color space : YUV
Chroma subsampling : 4:2:0
Bit depth : 8 bits
Scan type : Progressive
Bits/(Pixel*Frame) : 0.071
Stream size : 1.14 GiB (91%)
Tagged date : UTC 2015-07-06 01:05:02
Audio #2
ID : 2
Format : AAC
Format/Info : Advanced Audio Codec
Format profile : LC
Codec ID : 40
Duration : 1h 23mn
Bit rate mode : Variable
Bit rate : 192 Kbps
Maximum bit rate : 203 Kbps
Channel(s) : 2 channels
Channel positions : Front: L R
Sampling rate : 44.1 KHz
Compression mode : Lossy
Stream size : 115 MiB (9%)
Title : IsoMedia File Produced by Google, 5-11-2011
Language : English
Encoded date : UTC 2015-07-06 01:04:17
Tagged date : UTC 2015-07-06 01:05:02

Скриншоты

--
[Профиль] [ЛС]

Создавать темы 13-Авг-2015 12:04 (спустя 1 месяц 3 дня)

Топик был перенесен из форума Концерты в форум Наши концерты
sergej644
 
Кто просматривает тему:

Показать сообщения:    

Текущее время: Сегодня 14:54

Часовой пояс: GMT



Вы не можете начинать темы
Вы не можете отвечать на сообщения
Вы не можете редактировать свои сообщения
Вы не можете удалять свои сообщения
Вы не можете голосовать в опросах
Вы не можете прикреплять файлы к сообщениям
Вы не можете скачивать файлы