Битва полов / Battle of the Sexes (2017) BDRip 720p | Лицензия

 
Author Message

BOSS ®

Gender:

Longevity: 5 years

Posts: 14188

Location: ODESSA



: 22 ()

Top Keeper 3 (1) Mega Seeder 4 (1) Mega Releaser 4 (1)
Торрент-статистика

Post 25-Dec-2017 08:59

[Quote]

Информация о фильме
Название: Битва полов
Оригинальное название: Battle of the Sexes
Год выхода: 2017
Жанр: драма, комедия, биография, спорт
Режиссер: Джонатан Дэйтон , Валери Фэрис
В ролях: Эмма Стоун, Стив Карелл, Андреа Райзборо, Натали Моралес, Сара Силверман, Билл Пуллман, Алан Камминг, Элизабет Шу, Эрик Кристиан Олсен, Фред Армисен, Марта МакАйзек, Лорен Кляйн
О фильме:
История соперничества между 55-летним чемпионом Уимблдона Бобби Риггсом и 29-летней теннисисткой Билли Джин Кинг. Легендарный матч, прошедший в 1973 году, собрал возле экранов более 50 миллионов американцев и доказал, что профессиональные спортсменки способны на равных состязаться с коллегами-мужчинами.

Страна: Великобритания, США
Студия: Cloud Eight Films, Decibel Films, Fox Searchlight Pictures, TSG Entertainment
Продолжительность: 02:01:39
Перевод: Многоголосый закадровый (Лицензия BD EUR)
Файл
Кодек: MPEG-4 AVC
Качество: BDRip 720p | Лицензия
Видео: AVC, 1280x536, 6500 kbps, 23.976 fps
Звук:
Аудио:1 AC3, 6 ch, 448 Kbps - Русский
Аудио:2 DTS, 6 ch, 1509 Kbps - Английский
Субтитры: Русские, Английские

Mediainfo

General
Unique ID : 177602036408859223375761340195687144834 (0x859CE8735E914BBD930B5A58E9049D82)
Complete name : Battle of the Sexes.2017.BDRip.720p.mkv
Format : Matroska
Format version : Version 4 / Version 2
File size : 7.18 GiB
Duration : 2 h 1 min
Overall bit rate : 8 453 kb/s
Encoded date : UTC 2017-12-24 22:33:09
Writing application : mkvmerge v17.0.0 ('Be Ur Friend') 64-bit
Writing library : libebml v1.3.5 + libmatroska v1.4.8
Video
ID : 1
Format : AVC
Format/Info : Advanced Video Codec
Format profile : High@L4.1
Format settings, CABAC : Yes
Format settings, RefFrames : 12 frames
Codec ID : V_MPEG4/ISO/AVC
Duration : 2 h 1 min
Bit rate : 6 500 kb/s
Width : 1 280 pixels
Height : 536 pixels
Display aspect ratio : 2.40:1
Frame rate mode : Constant
Frame rate : 23.976 (24000/1001) FPS
Color space : YUV
Chroma subsampling : 4:2:0
Bit depth : 8 bits
Scan type : Progressive
Bits/(Pixel*Frame) : 0.395
Stream size : 5.52 GiB (77%)
Writing library : x264 core 148 r2665kMod a01e339
Encoding settings : cabac=1 / ref=12 / deblock=1:-3:-3 / analyse=0x3:0x133 / me=umh / subme=11 / psy=1 / fade_compensate=0.00 / psy_rd=1.05:0.00 / mixed_ref=1 / me_range=32 / chroma_me=1 / trellis=2 / 8x8dct=1 / cqm=0 / deadzone=21,11 / fast_pskip=0 / chroma_qp_offset=-2 / threads=17 / lookahead_threads=2 / sliced_threads=0 / nr=0 / decimate=0 / interlaced=0 / bluray_compat=0 / constrained_intra=0 / fgo=0 / bframes=8 / b_pyramid=2 / b_adapt=2 / b_bias=0 / direct=3 / weightb=1 / open_gop=0 / weightp=2 / keyint=240 / keyint_min=24 / scenecut=40 / intra_refresh=0 / rc=2pass / mbtree=0 / bitrate=6500 / ratetol=1.0 / qcomp=0.70 / qpmin=0 / qpmax=69 / qpstep=4 / cplxblur=20.0 / qblur=0.5 / ip_ratio=1.20 / pb_ratio=1.20 / aq=3:0.85
Language : English
Default : Yes
Forced : No
Audio #1
ID : 2
Format : AC-3
Format/Info : Audio Coding 3
Format settings, Endianness : Big
Codec ID : A_AC3
Duration : 2 h 1 min
Bit rate mode : Constant
Bit rate : 448 kb/s
Channel(s) : 6 channels
Channel positions : Front: L C R, Side: L R, LFE
Sampling rate : 48.0 kHz
Frame rate : 31.250 FPS (1536 SPF)
Bit depth : 16 bits
Compression mode : Lossy
Stream size : 390 MiB (5%)
Language : Russian
Service kind : Complete Main
Default : Yes
Forced : No
Audio #2
ID : 3
Format : DTS
Format/Info : Digital Theater Systems
Mode : 16
Format settings, Endianness : Big
Codec ID : A_DTS
Duration : 2 h 1 min
Bit rate mode : Constant
Bit rate : 1 509 kb/s
Channel(s) : 6 channels
Channel positions : Front: L C R, Side: L R, LFE
Sampling rate : 48.0 kHz
Frame rate : 93.750 FPS (512 SPF)
Bit depth : 24 bits
Compression mode : Lossy
Stream size : 1.28 GiB (18%)
Language : English
Default : No
Forced : No
Text #1
ID : 4
Format : UTF-8
Codec ID : S_TEXT/UTF8
Codec ID/Info : UTF-8 Plain Text
Duration : 2 h 0 min
Bit rate : 106 b/s
Count of elements : 1639
Stream size : 94.5 KiB (0%)
Language : Russian
Default : No
Forced : No
Text #2
ID : 5
Format : UTF-8
Codec ID : S_TEXT/UTF8
Codec ID/Info : UTF-8 Plain Text
Duration : 1 h 57 min
Bit rate : 73 b/s
Count of elements : 2070
Stream size : 63.3 KiB (0%)
Language : English
Default : No
Forced : No
Menu
00:00:00.000 : en:00:00:00.000
00:03:34.423 : en:00:03:34.423
00:07:51.304 : en:00:07:51.304
00:10:57.532 : en:00:10:57.532
00:15:13.621 : en:00:15:13.621
00:19:09.523 : en:00:19:09.523
00:22:54.915 : en:00:22:54.915
00:27:57.676 : en:00:27:57.676
00:34:32.946 : en:00:34:32.946
00:38:57.835 : en:00:38:57.835
00:44:57.278 : en:00:44:57.278
00:49:17.079 : en:00:49:17.079
00:54:23.927 : en:00:54:23.927
00:57:54.763 : en:00:57:54.763
01:06:28.276 : en:01:06:28.276
01:15:03.499 : en:01:15:03.499
01:19:37.940 : en:01:19:37.940
01:23:21.914 : en:01:23:21.914
01:30:49.819 : en:01:30:49.819
01:35:11.623 : en:01:35:11.623
01:38:59.142 : en:01:38:59.142
01:43:04.053 : en:01:43:04.053
01:48:47.062 : en:01:48:47.062
01:55:22.749 : en:01:55:22.749

Скриншоты

[Profile] [PM]
Кто просматривает тему:

Forum Topic Author Size
Discovery Discovery. Османы и христиане: Битва за Европу / Ottomans Versus Christians: Battle for Europe [серии 1-3 из 3] [2012г., Документальный, история, исследование, HDTVRip 720p] ZeNArD 3.86 GB
Бокс, Бои без правил, К1 M-1 Challenge 50 Битва на Неве [15.08.2014, MMA, PDTV] sergej644 3.37 GB
Nat Geo Wild Nat Geo Wild: Битва болотных драконов / Battle of the Swamp Dragons (Casey Edlund) [2017 г., Документальный, фауна, HDTVRip 720p] skorpionN 1.6 GB
Action FPS (1st Person) Painkiller Black Edition / Painkiller: Крещенный кровью + Painkiller: Битва за Пределами Ада [L|GOG] [ENG] (2004) (v.1.64) TorrentFilm 3.67 GB
Фильмы 2014 года Адмирал: Битва за Мён Рян / Myeong-ryang / The Admiral: Roaring Currents (Ким Хан Мин) [2014, приключения, военный, биография] HDRip | L1 BOSS 1.37 GB
Фильмы (HD Rips | 720p, 1080p) Александр. Невская битва (2008) BDRip 1080p sergej644 4.37 GB
Классика зарубежного кино Битва за Анцио / Lo sbarco di Anzio (1968) WEB-DLRip от Koenig | P Russian Mafia 1.45 GB
Документальные HD Битва за доставку (сезон 6) / Shipping Wars [2014, Познавательный, History Channel HD, DVB] TorrentFilm 5.16 GB
Display posts from previous:    

The time now is: Today 05:54

All times are GMT



You cannot post new topics in this forum
You cannot reply to topics in this forum
You cannot edit your posts in this forum
You cannot delete your posts in this forum
You cannot vote in polls in this forum
You cannot attach files in this forum
You cannot download files in this forum