Битва за тяжёлую воду / Kampen om tungtvannet [S01] (2015) BDRip 720p | A

 
Автор Сообщение

достали все ®

Пол:

Стаж: 1 год 8 месяцев

Сообщений: 6565



Награды: 12 (Подробнее)

Mega Seeder 1 (Количество: 1) Mega Seeder 4 (Количество: 1) Top Releaser 3 (Количество: 1)
Торрент-статистика

Создавать темы 11-Июл-2015 08:37

[Цитировать]

Информация о фильме
Название: Сражение за тяжёлую воду
Оригинальное название: Kampen om tungtvannet
Год выхода: 2015
Жанр: драма, военный, история
Режиссер: Пер-Олав Соренсен
В ролях: Андреас Дёлер, Роберт Хунгер-Бюлер, Марк Беньямин Пух, Кристоф Бах, Пери Баумейстер, Эспен Ребол Бьерке, Торстейн Бьёрклунд, Оле Кристоффер Эртвог, Ейрик Эвьен
О фильме:
Сериал рассказывает о диверсионной операции по уничтожению завода в норвежском посёлке Рьюкан, на котором во время второй мировой войны было налажено производство тяжёлой воды, используемой гитлеровской Германией в собственном ядерном проекте для производства ядерного оружия.
История показана с четырёх точек зрения — немецкой, союзников по антигитлеровской коалиции, команды диверсантов, а также со стороны компании «Norsk Hydro», владеющей заводом.

Страна: Норвегия
Студия: Headline Pictures
Продолжительность: 6 x ~ 00:45:00
Перевод: Авторский (Дмитрий Есарев)
Файл
Формат: Matroska
Источник: Kampen om tungtvannet 2015 1080p Blu-ray AVC DTS-HD MA 5.1-NorTV
Видео: 1280x720 at 25.000 fps, x.264, ~6256 kbps avg
Аудио#1: Russian: 48 kHz, DTS, 3/2 (L,C,R,l,r) + LFE ch, ~1536.00 kbps avg |Авторский, Д. Есарев|
Аудио#2: Norwegian: 48 kHz, DTS, 3/2 (L,C,R,l,r) + LFE ch, ~1536.00 kbps avg
Субтитры: Russian
*** Перевод выполнен в рамках сервиса "Озвучивание". Спонсоры: nekazz, DESolyaToR, wandergraft, gelom, alinto, IL, anton48, Lazip, trek7742, Faulenzer, r154, 3gas, boss111, viryzhkov, Julian, longru.

MI

General
Unique ID : 229433442004249834661007540060292148421 (0xAC9B460BF588ED84A35505E54AC06CC5)
Complete name : The.Battle.for.Heavy.Water.2015.Ep01.720p.BluRay.Rus.Nor.HDCLUB.mkv
Format : Matroska
Format version : Version 2
File size : 2.94 GiB
Duration : 44mn 54s
Overall bit rate : 9 372 Kbps
Movie name : The Battle for Heavy Water EP01 (2015) - Release for HDCLUB
Encoded date : UTC 2015-07-08 22:33:24
Writing application : mkvmerge v3.4.0 ('Rapunzel') сборка от May 15 2010 09:38:20
Writing library : libebml v0.8.0 + libmatroska v0.9.0
Video
ID : 1
Format : AVC
Format/Info : Advanced Video Codec
Format profile : High@L4.1
Format settings, CABAC : Yes
Format settings, ReFrames : 12 frames
Codec ID : V_MPEG4/ISO/AVC
Duration : 44mn 54s
Bit rate : 6 167 Kbps
Width : 1 280 pixels
Height : 720 pixels
Display aspect ratio : 16:9
Frame rate mode : Constant
Frame rate : 25.000 fps
Color space : YUV
Chroma subsampling : 4:2:0
Bit depth : 8 bits
Scan type : Progressive
Bits/(Pixel*Frame) : 0.268
Stream size : 1.93 GiB (66%)
Title : The Battle for Heavy Water EP01 (2015) - Release for HDCLUB
Writing library : x264 core 144 r2525 40bb568
Encoding settings : cabac=1 / ref=12 / deblock=1:-3:-3 / analyse=0x3:0x133 / me=umh / subme=10 / psy=1 / psy_rd=1.00:0.00 / mixed_ref=1 / me_range=24 / chroma_me=1 / trellis=2 / 8x8dct=1 / cqm=0 / deadzone=21,11 / fast_pskip=1 / chroma_qp_offset=-2 / threads=12 / lookahead_threads=3 / sliced_threads=0 / nr=0 / decimate=1 / interlaced=0 / bluray_compat=0 / constrained_intra=0 / bframes=12 / b_pyramid=2 / b_adapt=2 / b_bias=0 / direct=3 / weightb=1 / open_gop=0 / weightp=2 / keyint=250 / keyint_min=25 / scenecut=40 / intra_refresh=0 / rc=crf / mbtree=0 / crf=16.5 / qcomp=0.65 / qpmin=0 / qpmax=69 / qpstep=4 / ip_ratio=1.40 / pb_ratio=1.30 / aq=1:0.95
Language : English
Default : No
Forced : No
Audio #1
ID : 2
Format : DTS
Format/Info : Digital Theater Systems
Mode : 16
Format settings, Endianness : Big
Codec ID : A_DTS
Duration : 44mn 54s
Bit rate mode : Constant
Bit rate : 1 509 Kbps
Channel(s) : 6 channels
Channel positions : Front: L C R, Side: L R, LFE
Sampling rate : 48.0 KHz
Bit depth : 16 bits
Compression mode : Lossy
Stream size : 485 MiB (16%)
Title : DTS 5.1 @ 1536 kbps - AVO, D.Esarev
Language : Russian
Default : Yes
Forced : No
Audio #2
ID : 3
Format : DTS
Format/Info : Digital Theater Systems
Mode : 16
Format settings, Endianness : Big
Codec ID : A_DTS
Duration : 44mn 54s
Bit rate mode : Constant
Bit rate : 1 509 Kbps
Channel(s) : 6 channels
Channel positions : Front: L C R, Side: L R, LFE
Sampling rate : 48.0 KHz
Bit depth : 16 bits
Compression mode : Lossy
Stream size : 485 MiB (16%)
Title : DTS 5.1 @ 1536 kbps
Language : Norwegian
Default : No
Forced : No
Text
ID : 4
Format : UTF-8
Codec ID : S_TEXT/UTF8
Codec ID/Info : UTF-8 Plain Text
Language : Russian
Default : No
Forced : No

Скриншоты

[Профиль] [ЛС]
Показать сообщения:    

Текущее время: Сегодня 18:16

Часовой пояс: GMT



Вы не можете начинать темы
Вы не можете отвечать на сообщения
Вы не можете редактировать свои сообщения
Вы не можете удалять свои сообщения
Вы не можете голосовать в опросах
Вы не можете прикреплять файлы к сообщениям
Вы не можете скачивать файлы