Битва за Скайарк / Battle for Skyark (2015) BDRip [H.264/1080p] [EN]

 
Автор Сообщение

sergej644 ®

Пол:

Стаж: 4 года 11 месяцев

Сообщений: 6046

Откуда: Soviet Union



Награды: Нет

Торрент-статистика

Создавать темы 05-Июн-2015 09:06

[Цитировать]

-Битва за Скайарк / Battle for Skyark (2015) BDRip [H.264/1080p] [EN]
- Производство: США, Empress Road Pictures, Lastlink Films Production, Light and Shadow Pictures
Жанр: фантастика, боевик, приключения, семейный
Режиссер: Саймон Хунг
Актеры: Каон Мортенсон, Гаррет Коффи, Taylor Coliee, Райли Джейн, Чантал Тхюй, Джада Фейсер, Мэттью Миллер, Кайл Пацек, Джейден Мартин, Алан Петрушевски, Марлен Окнер, Сиркус-Шалевски
Описание:
Недалекое будущее. Земля захвачена инопланетными монстрами, и жить на ней стало невозможно. Монстры не только превратили Землю в подобие свалки, но еще и продолжают уничтожать оставшееся немногочисленное население, состоящее в основном из осиротевших в результате продолжительной войны детей. Единственная возможность спастись, это попасть на огромный космический корабль «СкайАрк», являющийся последним выбором для продолжения жизни людей. Отважный сын погибшего командира берет на себя роль спасителя. Он вместе со своими друзьями борется с монстрами, пробиваясь к морю, где СкайАрк должен их всех забрать с погибшей планеты...

Продолжительность: 01:28:25
Качество видео: BDRip [H.264/1080p]
Перевод: Отсутствует
Язык: Английский
Видео: AVC, 1920x816 (2.35:1), 9100 kbps, 23,976 fps, 0,242 bpp
Аудио: английский / DTS / 5.1 / 48 kHz / 1510 kbps / 16 bit

MediaInfo

General
Complete name                          Battle for Skyark.1080p.mkv
Format                                   : Matroska
Format version                           : Version 2
File size                                : 6.55 GiB
Duration                                 : 1h 28mn
Overall bit rate                         : 10.6 Mbps
Writing application                      : mkvmerge v4.1.1 ('Bouncin' Back') built on Jul  3 2010 22:54:08
Writing library                          : libebml v1.0.0 + libmatroska v1.0
Video
ID                                       : 1
Format                                   : AVC
Format/Info                              : Advanced Video Codec
Format profile                           : [url=mailto:High@L4.1]High@L4.1[/url]
Format settings, CABAC                   : Yes
Format settings, ReFrames                : 5 frames
Codec ID                                 : V_MPEG4/ISO/AVC
Duration                                 : 1h 28mn
Bit rate                                 : 9 100 Kbps
Width                                    : 1 920 pixels
Height                                   : 816 pixels
Display aspect ratio                     : 2.35:1
Frame rate                               : 23.976 fps
Color space                              : YUV
Chroma subsampling                       : 4:2:0
Bit depth                                : 8 bits
Scan type                                : Progressive
Bits/(Pixel*Frame)                       : 0.242
Stream size                              : 5.49 GiB (84%)
Writing library                          : x264 core 146 r2538 121396c
Encoding settings                        : cabac=1 / ref=5 / deblock=1:-3:-3 / analyse=0x3:0x133 / me=umh / subme=8 / psy=1 / psy_rd=1.00:0.15 / mixed_ref=1 / me_range=16 / chroma_me=1 / trellis=1 / 8x8dct=1 / cqm=0 / deadzone=21,11 / fast_pskip=0 / chroma_qp_offset=-3 / threads=18 / lookahead_threads=3 / sliced_threads=0 / nr=0 / decimate=1 / interlaced=0 / bluray_compat=0 / constrained_intra=0 / bframes=3 / b_pyramid=2 / b_adapt=2 / b_bias=0 / direct=3 / weightb=1 / open_gop=0 / weightp=2 / keyint=240 / keyint_min=23 / scenecut=40 / intra_refresh=0 / rc_lookahead=50 / rc=2pass / mbtree=1 / bitrate=9100 / ratetol=1.0 / qcomp=0.60 / qpmin=0 / qpmax=69 / qpstep=4 / cplxblur=20.0 / qblur=0.5 / ip_ratio=1.40 / aq=1:1.00
Language                                 : English
Default                                  : Yes
Forced                                   : No
Audio
ID                                       : 2
Format                                   : DTS
Format/Info                              : Digital Theater Systems
Codec ID                                 : A_DTS
Duration                                 : 1h 28mn
Bit rate mode                            : Constant
Bit rate                                 : 1 510 Kbps
Channel(s)                               : 6 channels
Channel positions                        : Front: L C R, Side: L R, LFE
Sampling rate                            : 48.0 KHz
Bit depth                                : 16 bits
Compression mode                         : Lossy
Stream size                              : 955 MiB (14%)
Language                                 : English
Default                                  : Yes
Forced                                   : No
Menu
00:00:00.000                             : en:00:00:00.000
00:07:18.187                             : en:00:07:18.187
00:13:28.474                             : en:00:13:28.474
00:20:45.702                             : en:00:20:45.702
00:29:05.160                             : en:00:29:05.160
00:37:34.460                             : en:00:37:34.460
00:42:14.156                             : en:00:42:14.156
00:49:20.791                             : en:00:49:20.791
00:55:30.160                             : en:00:55:30.160
01:04:41.419                             : en:01:04:41.419
01:09:44.388                             : en:01:09:44.388
01:18:43.009                             : en:01:18:43.009
-Скриншоты:
Время раздачи: с 13:00 до 23:00
[Профиль] [ЛС]
Кто просматривает тему:

Форум Тема Автор Размер
Discovery Discovery. Османы и христиане: Битва за Европу / Ottomans Versus Christians: Battle for Europe [серия 1 из 3] [2012г., Документальный, история, исследование, HDTVRip 720p] Zithylord 1.29 GB
Бокс, Бои без правил, К1 M-1 Challenge 50 Битва на Неве [15.08.2014, MMA, PDTV] sergej644 3.37 GB
Action FPS (1st Person) Painkiller Black Edition / Painkiller: Крещенный кровью + Painkiller: Битва за Пределами Ада [L|GOG] [ENG] (2004) (v.1.64) TorrentFilm 3.67 GB
Action Transformers: Rise of the Dark Spark / Трансформеры: Битва за Тёмную Искру [L] [RUS / MULTI6] (2014) bot 10.01 GB
Action Transformers: Rise of the Dark Spark / Трансформеры: Битва за Тёмную Искру [L|Steam-Rip] [RUS/ENG] (2014) TorrentFilm 8.67 GB
Action Transformers: Rise of the Dark Spark / Трансформеры: Битва за Тёмную Искру [RePack] [RUS|Multi6/ENG] (2014) TorrentFilm 5.35 GB
Action World War II Combat: Iwo Jima / Вторая Мировая: Битва за Иводзиму [RUS] TorrentFilm 781 MB
Фильмы 2014 года Адмирал: Битва за Мён Рян / Myeong-ryang / The Admiral: Roaring Currents (Ким Хан Мин) [2014, приключения, военный, биография] HDRip | L1 BOSS 1.37 GB
Показать сообщения:    

Текущее время: Сегодня 02:30

Часовой пояс: GMT



Вы не можете начинать темы
Вы не можете отвечать на сообщения
Вы не можете редактировать свои сообщения
Вы не можете удалять свои сообщения
Вы не можете голосовать в опросах
Вы не можете прикреплять файлы к сообщениям
Вы не можете скачивать файлы