Битва за Севастополь / Незламна (2015) WEB-DL [H.264/1080p-LQ]

 
Автор Сообщение

достали все ®

Пол:

Стаж: 1 год 8 месяцев

Сообщений: 6627



Награды: 12 (Подробнее)

Mega Seeder 1 (Количество: 1) Top Releaser 3 (Количество: 1) Mega Seeder 5 (Количество: 1)
Торрент-статистика

Создавать темы 02-Май-2015 03:46

[Цитировать]

-Битва за Севастополь / Незламна (2015) WEB-DL [H.264/1080p-LQ]- Производство: Россия, Украина, "Новые люди"
Жанр: Военный, Боевик, Мелодрама, Драма
Режиссер: Сергей Мокрицкий
Продюсер: Егор Олесов, Наталья Мокрицкая, Ульяна Савельева
Актеры: Юлия Пересильд, Евгений Цыганов, Олег Васильков, Никита Тарасов, Джоан Блэкэм, Полина Пахомова, Владимир Лилицкий, Анатолий Кот, Нателла Абелева-Таганова, Валерий Гришко
Описание:
Любовь под нескончаемым огнем противника, дружба с Элеонорой Рузвельт, выступление на конференции, повлиявшее на исход Второй мировой войны, желание жить и страх потерять любимого человека — справится ли со всем этим хрупкая женщина?
Это реальная история Людмилы Павличенко — легендарной женщины-снайпера. Солдаты шли в бой с ее именем на устах, а враги устроили на нее охоту. На поле битвы она видела смерть и страдания, но самым серьезным испытанием для нее стала любовь, которую у нее могла забрать война…

Возраст: 12+
Дата мировой премьеры: 2 апреля 2015
Дата премьеры в РФ: 2 апреля 2015, «Двадцатый Век Фокс СНГ»
Дата выхода DVD/Blu-ray релиза: 12 мая 2015, «Lizard Cinema Trade»
Продолжительность: 01:57:56
Качество видео: WEB-DL
Перевод: Не требуется (русский) iTunes
Субтитры: Отсутствуют
Видеокодек: MPEG-4 AVC/H.264
Битрейт видео: 4360 kb/s
Размер кадра: 1920x802
Аудиокодек: AC3 5.1
Битрейт аудио: 384 kb/s
Сэмпл: Скачать

MI

Общее
Уникальный идентификатор : 241375012237838315021937633943471564364 (0xB59722EA6D41A615957CBF410A0CA64C)
Полное имя : D:\Битва.за.Севастополь.2015.WEB-DL.[1080p].NNM-CLUB.mkv
Формат : Matroska
Версия формата : Version 4 / Version 2
Размер файла : 3,99 Гбайт
Продолжительность : 1 ч. 57 м.
Общий поток : 4840 Кбит/сек
Дата кодирования : UTC 2015-05-01 21:20:07
Программа кодирования : mkvmerge v7.6.0 ('Garden of Dreams') 32bit built on Feb 8 2015 12:51:39
Библиотека кодирования : libebml v1.3.1 + libmatroska v1.4.2
DURATION : 01:57:56.640000000
NUMBER_OF_FRAMES : 221145
NUMBER_OF_BYTES : 339678720
_STATISTICS_WRITING_APP : mkvmerge v7.6.0 ('Garden of Dreams') 32bit built on Feb 8 2015 12:51:39
_STATISTICS_WRITING_DATE_UTC : 2015-05-01 21:20:07
_STATISTICS_TAGS : BPS DURATION NUMBER_OF_FRAMES NUMBER_OF_BYTES
Видео
Идентификатор : 1
Формат : AVC
Формат/Информация : Advanced Video Codec
Профиль формата : High@L4
Параметр CABAC формата : Да
Параметр ReFrames формата : 5 кадров
Идентификатор кодека : V_MPEG4/ISO/AVC
Продолжительность : 1 ч. 57 м.
Битрейт : 4360 Кбит/сек
Ширина : 1920 пикселей
Высота : 802 пикселя
Соотношение сторон : 2,40:1
Режим частоты кадров : Постоянный
Частота кадров : 25,000 кадров/сек
Цветовое пространство : YUV
Субдискретизация насыщенности : 4:2:0
Битовая глубина : 8 бит
Тип развёртки : Прогрессивная
Бит/(Пиксели*Кадры) : 0.113
Размер потока : 3,59 Гбайт (90%)
Язык : English
Default : Да
Forced : Нет
colour_range : Limited
Основные цвета : BT.709
Характеристики трансфера : BT.709
Коэффициенты матрицы : BT.709
Аудио
Идентификатор : 2
Формат : AC-3
Формат/Информация : Audio Coding 3
Расширение режима : CM (complete main)
Параметр Endianness формата : Big
Идентификатор кодека : A_AC3
Продолжительность : 1 ч. 57 м.
Вид битрейта : Постоянный
Битрейт : 384 Кбит/сек
Каналы : 6 каналов
Расположение каналов : Front: L C R, Side: L R, LFE
Частота : 48,0 КГц
Битовая глубина : 16 бит
Метод сжатия : С потерями
Размер потока : 324 Мбайт (8%)
Язык : Russian
Default : Да
Forced : Нет
Меню
00:00:00.000 : en:1
00:07:37.000 : en:2
00:16:32.000 : en:3
00:21:52.000 : en:4
00:27:23.000 : en:5
00:34:39.000 : en:6
00:41:50.000 : en:7
00:49:32.000 : en:8
00:56:32.000 : en:9
01:04:04.000 : en:10
01:12:04.000 : en:11
01:20:02.000 : en:12
01:30:27.000 : en:13
01:39:11.000 : en:14
01:46:22.000 : en:15
01:54:34.000 : en:16
Скриншоты:
[Профиль] [ЛС]
Кто просматривает тему:

Форум Тема Автор Размер
Discovery Discovery. Османы и христиане: Битва за Европу / Ottomans Versus Christians: Battle for Europe [серия 1 из 3] [2012г., Документальный, история, исследование, HDTVRip 720p] Zithylord 1.29 GB
Бокс, Бои без правил, К1 M-1 Challenge 50 Битва на Неве [15.08.2014, MMA, PDTV] sergej644 3.37 GB
Action FPS (1st Person) Painkiller Black Edition / Painkiller: Крещенный кровью + Painkiller: Битва за Пределами Ада [L|GOG] [ENG] (2004) (v.1.64) TorrentFilm 3.67 GB
Action Transformers: Rise of the Dark Spark / Трансформеры: Битва за Тёмную Искру [L] [RUS / MULTI6] (2014) bot 10.01 GB
Action Transformers: Rise of the Dark Spark / Трансформеры: Битва за Тёмную Искру [L|Steam-Rip] [RUS/ENG] (2014) TorrentFilm 8.67 GB
Action Transformers: Rise of the Dark Spark / Трансформеры: Битва за Тёмную Искру [RePack] [RUS|Multi6/ENG] (2014) TorrentFilm 5.35 GB
Action World War II Combat: Iwo Jima / Вторая Мировая: Битва за Иводзиму [RUS] TorrentFilm 781 MB
Фильмы 2014 года Адмирал: Битва за Мён Рян / Myeong-ryang / The Admiral: Roaring Currents (Ким Хан Мин) [2014, приключения, военный, биография] HDRip | L1 BOSS 1.37 GB
Показать сообщения:    

Текущее время: Сегодня 12:09

Часовой пояс: GMT



Вы не можете начинать темы
Вы не можете отвечать на сообщения
Вы не можете редактировать свои сообщения
Вы не можете удалять свои сообщения
Вы не можете голосовать в опросах
Вы не можете прикреплять файлы к сообщениям
Вы не можете скачивать файлы