Битва за Севастополь / Незламна (2015) WEB-DL [H.264/720p]

 
Автор Сообщение

достали все ®

Пол:

Стаж: 1 год 8 месяцев

Сообщений: 6527



Награды: 12 (Подробнее)

Top Releaser 2 (Количество: 1) Top Releaser 4 (Количество: 1) Mega Releaser 2 (Количество: 1)
Торрент-статистика

Создавать темы 02-Май-2015 03:44

[Цитировать]

-Битва за Севастополь / Незламна (2015) WEB-DL [H.264/720p]- Производство: Россия, Украина, "Новые люди"
Жанр: Военный, Боевик, Мелодрама, Драма
Режиссер: Сергей Мокрицкий
Продюсер: Егор Олесов, Наталья Мокрицкая, Ульяна Савельева
Актеры: Юлия Пересильд, Евгений Цыганов, Олег Васильков, Никита Тарасов, Джоан Блэкэм, Полина Пахомова, Владимир Лилицкий, Анатолий Кот, Нателла Абелева-Таганова, Валерий Гришко
Описание:
Любовь под нескончаемым огнем противника, дружба с Элеонорой Рузвельт, выступление на конференции, повлиявшее на исход Второй мировой войны, желание жить и страх потерять любимого человека — справится ли со всем этим хрупкая женщина?
Это реальная история Людмилы Павличенко — легендарной женщины-снайпера. Солдаты шли в бой с ее именем на устах, а враги устроили на нее охоту. На поле битвы она видела смерть и страдания, но самым серьезным испытанием для нее стала любовь, которую у нее могла забрать война…

Возраст: 12+
Дата мировой премьеры: 2 апреля 2015
Дата премьеры в РФ: 2 апреля 2015, «Двадцатый Век Фокс СНГ»
Дата выхода DVD/Blu-ray релиза: 12 мая 2015, «Lizard Cinema Trade»
Продолжительность: 01:57:56
Качество видео: WEB-DL
Перевод: Не требуется (русский) iTunes
Субтитры: Отсутствуют
Видеокодек: MPEG-4 AVC/H.264
Битрейт видео: 3796 kb/s
Размер кадра: 960@1280x534
Аудиокодек: AC3 5.1
Битрейт аудио: 384 kb/s
Сэмпл: Скачать

MI

Общее
Уникальный идентификатор : 249612569790963477664175606387073398374 (0xBBC9A1DC28508A65AF1B52B6F04CB666)
Полное имя : D:\Битва за Севастополь .2015.WEB-DL.[720p].NNM-CLUB.mkv
Формат : Matroska
Версия формата : Version 4 / Version 2
Размер файла : 3,51 Гбайт
Продолжительность : 1 ч. 57 м.
Общий поток : 4265 Кбит/сек
Дата кодирования : UTC 2015-05-01 18:11:47
Программа кодирования : mkvmerge v6.9.1 ('Blue Panther') 64bit built on Apr 18 2014 18:23:38
Библиотека кодирования : libebml v1.3.0 + libmatroska v1.4.1
Видео
Идентификатор : 1
Формат : AVC
Формат/Информация : Advanced Video Codec
Профиль формата : [url=mailto:Main@L3.1]Main@L3.1[/url]
Параметр CABAC формата : Нет
Параметр ReFrames формата : 2 кадра
Идентификатор кодека : V_MPEG4/ISO/AVC
Продолжительность : 1 ч. 57 м.
Битрейт : 3796 Кбит/сек
Ширина : 960 пикселей
Высота : 534 пикселя
Соотношение сторон : 2,40:1
Режим частоты кадров : Постоянный
Частота кадров : 25,000 кадров/сек
Цветовое пространство : YUV
Субдискретизация насыщенности : 4:2:0
Битовая глубина : 8 бит
Тип развёртки : Прогрессивная
Бит/(Пиксели*Кадры) : 0.296
Размер потока : 3,13 Гбайт (89%)
Язык : English
Default : Да
Forced : Нет
colour_range : Limited
Основные цвета : BT.709
Характеристики трансфера : BT.709
Коэффициенты матрицы : BT.709
Аудио
Идентификатор : 2
Формат : AC-3
Формат/Информация : Audio Coding 3
Расширение режима : CM (complete main)
Параметр Endianness формата : Big
Идентификатор кодека : A_AC3
Продолжительность : 1 ч. 57 м.
Вид битрейта : Постоянный
Битрейт : 384 Кбит/сек
Каналы : 6 каналов
Расположение каналов : Front: L C R, Side: L R, LFE
Частота : 48,0 КГц
Битовая глубина : 16 бит
Метод сжатия : С потерями
Размер потока : 324 Мбайт (9%)
Язык : Russian
Default : Да
Forced : Нет
Меню
00:00:00.000 : en:1
00:07:37.000 : en:2
00:16:32.000 : en:3
00:21:52.000 : en:4
00:27:23.000 : en:5
00:34:39.000 : en:6
00:41:50.000 : en:7
00:49:32.000 : en:8
00:56:32.000 : en:9
01:04:04.000 : en:10
01:12:04.000 : en:11
01:20:02.000 : en:12
01:30:27.000 : en:13
01:39:11.000 : en:14
01:46:22.000 : en:15
01:54:34.000 : en:16
Скриншоты:
[Профиль] [ЛС]
Показать сообщения:    

Текущее время: Сегодня 02:13

Часовой пояс: GMT



Вы не можете начинать темы
Вы не можете отвечать на сообщения
Вы не можете редактировать свои сообщения
Вы не можете удалять свои сообщения
Вы не можете голосовать в опросах
Вы не можете прикреплять файлы к сообщениям
Вы не можете скачивать файлы