Битва за Севастополь (2015) DVDRip [H.264]

 
Автор Сообщение

достали все ®

Пол:

Стаж: 1 год 8 месяцев

Сообщений: 6591



Награды: 12 (Подробнее)

Mega Releaser 3 (Количество: 1) Mega Seeder 1 (Количество: 1) Mega Releaser 1 (Количество: 1)
Торрент-статистика

Создавать темы 27-Апр-2015 03:48

[Цитировать]

-Битва за Севастополь (2015) DVDRip [H.264]- Производство: "Новые люди", "Кинодел" / Россия, Украина
Жанр: Военный, Боевик, Мелодрама, Драма
Режиссер: Сергей Мокрицкий
Актеры: Юлия Пересильд, Евгений Цыганов, Олег Васильков, Никита Тарасов, Джоан Блэкэм, Полина Пахомова, Владимир Лилицкий, Анатолий Кот, Нателла Абелева-Таганова, Валерий Гришко
Описание:
Любовь под нескончаемым огнем противника, дружба с Элеонорой Рузвельт, выступление на конференции, повлиявшее на исход Второй мировой войны, желание жить и страх потерять любимого человека — справится ли со всем этим хрупкая женщина?
Это реальная история Людмилы Павличенко — легендарной женщины-снайпера. Солдаты шли в бой с ее именем на устах, а враги устроили на нее охоту. На поле битвы она видела смерть и страдания, но самым серьезным испытанием для нее стала любовь, которую у нее могла забрать война…

Дата мировой премьеры: 2 апреля 2015
Дата премьеры в РФ: 2 апреля 2015, «Двадцатый Век Фокс СНГ»
Дата выхода DVD/Blu-ray релиза: 12 мая 2015, «Lizard Cinema Trade»
Продолжительность: 01:57:54
Качество видео: DVDRip
Перевод: Не требуется (русский язык)
Субтитры: Отсутствуют
Видео: AVC/H.264, 720x426@1024x426, 1320 kbps, 25 fps
Аудио: AC3 5.1, 448 kbps

Mediainfo @ log x.264

x264 [info]: frame I:1091  Avg QP:16.45  size: 39443  PSNR Mean Y:47.04 U:53.46 V:52.94 Avg:48.20 Global:46.93
x264 [info]: frame P:45849 Avg QP:19.99  size: 13328  PSNR Mean Y:44.57 U:53.24 V:52.62 Avg:45.85 Global:44.19
x264 [info]: frame B:129926 Avg QP:21.91  size:  3947  PSNR Mean Y:44.34 U:52.27 V:51.50 Avg:45.60 Global:43.74
Complete name               : C:\Битва.За.Севастополь.(2015).DVDRip.[H.264].nnm-club_y607ce (1).mkv
Format                      : Matroska
Format version              : Version 4 / Version 2
File size                   : 1.46 GiB
Duration                    : 1h 57mn
Overall bit rate            : 1 769 Kbps
Movie name                  : Битва За Севастополь (2015) DVDRip [H.264] | nnm-club | y607ce
Encoded date                : UTC 2015-04-26 23:22:26
Writing application         : mkvmerge v7.8.0 ('River Man') 64bit built on Mar 27 2015 16:31:37
Writing library             : libebml v1.3.1 + libmatroska v1.4.2
DURATION                    : 01:57:54.400000000
NUMBER_OF_FRAMES            : 221075
NUMBER_OF_BYTES             : 396166400
_STATISTICS_WRITING_APP     : mkvmerge v7.8.0 ('River Man') 64bit built on Mar 27 2015 16:31:37
_STATISTICS_WRITING_DATE_UT : 2015-04-26 23:22:26
_STATISTICS_TAGS            : BPS DURATION NUMBER_OF_FRAMES NUMBER_OF_BYTES
Video
ID                          : 1
Format                      : AVC
Format/Info                 : Advanced Video Codec
Format profile              : [url=mailto:High@L4.1]High@L4.1[/url]
Format settings, CABAC      : Yes
Format settings, ReFrames   : 10 frames
Codec ID                    : V_MPEG4/ISO/AVC
Duration                    : 1h 57mn
Bit rate                    : 1 320 Kbps
Width                       : 720 pixels
Height                      : 426 pixels
Display aspect ratio        : 2.40:1
Frame rate mode             : Constant
Frame rate                  : 25.000 fps
Color space                 : YUV
Chroma subsampling          : 4:2:0
Bit depth                   : 8 bits
Scan type                   : Progressive
Bits/(Pixel*Frame)          : 0.172
Stream size                 : 1.06 GiB (73%)
Title                       : Битва За Севастополь (2015) DVDRip
Writing library             : x264 core 146 r2538 121396c
Encoding settings           : cabac=1 / ref=10 / deblock=1:-2:-2 / analyse=0x3:0x113 / me=esa / subme=11 / psy=1 / psy_rd=1.00:0.25 / mixed_ref=1 / me_range=48 / chroma_me=1 / trellis=2 / 8x8dct=1 / cqm=0 / deadzone=21,11 / fast_pskip=1 / chroma_qp_offset=-4 / threads=12 / lookahead_threads=3 / sliced_threads=0 / nr=0 / decimate=0 / interlaced=0 / bluray_compat=0 / constrained_intra=0 / bframes=16 / b_pyramid=2 / b_adapt=2 / b_bias=0 / direct=3 / weightb=1 / open_gop=0 / weightp=2 / keyint=250 / keyint_min=25 / scenecut=40 / intra_refresh=0 / rc_lookahead=60 / rc=2pass / mbtree=0 / bitrate=1320 / ratetol=1.0 / qcomp=0.60 / qpmin=0 / qpmax=69 / qpstep=4 / cplxblur=20.0 / qblur=0.5 / vbv_maxrate=14000 / vbv_bufsize=14000 / nal_hrd=none / filler=0 / ip_ratio=1.40 / pb_ratio=1.30 / aq=3:1.00
Language                    : Russian
Default                     : Yes
Forced                      : Yes
Audio
ID                          : 2
Format                      : AC-3
Format/Info                 : Audio Coding 3
Mode extension              : CM (complete main)
Format settings, Endianness : Big
Codec ID                    : A_AC3
Duration                    : 1h 57mn
Bit rate mode               : Constant
Bit rate                    : 448 Kbps
Channel(s)                  : 6 channels
Channel positions           : Front: L C R, Side: L R, LFE
Sampling rate               : 48.0 KHz
Compression mode            : Lossy
Stream size                 : 378 MiB (25%)
Language                    : Russian
Default                     : Yes
Forced                      : Yes
Скриншоты:
[Профиль] [ЛС]
Кто просматривает тему:

Форум Тема Автор Размер
Discovery Discovery. Османы и христиане: Битва за Европу / Ottomans Versus Christians: Battle for Europe [серия 1 из 3] [2012г., Документальный, история, исследование, HDTVRip 720p] Zithylord 1.29 GB
Бокс, Бои без правил, К1 M-1 Challenge 50 Битва на Неве [15.08.2014, MMA, PDTV] sergej644 3.37 GB
Action FPS (1st Person) Painkiller Black Edition / Painkiller: Крещенный кровью + Painkiller: Битва за Пределами Ада [L|GOG] [ENG] (2004) (v.1.64) TorrentFilm 3.67 GB
Action Transformers: Rise of the Dark Spark / Трансформеры: Битва за Тёмную Искру [L] [RUS / MULTI6] (2014) bot 10.01 GB
Action Transformers: Rise of the Dark Spark / Трансформеры: Битва за Тёмную Искру [L|Steam-Rip] [RUS/ENG] (2014) TorrentFilm 8.67 GB
Action Transformers: Rise of the Dark Spark / Трансформеры: Битва за Тёмную Искру [RePack] [RUS|Multi6/ENG] (2014) TorrentFilm 5.35 GB
Action World War II Combat: Iwo Jima / Вторая Мировая: Битва за Иводзиму [RUS] TorrentFilm 781 MB
Фильмы 2014 года Адмирал: Битва за Мён Рян / Myeong-ryang / The Admiral: Roaring Currents (Ким Хан Мин) [2014, приключения, военный, биография] HDRip | L1 BOSS 1.37 GB
Показать сообщения:    

Текущее время: Сегодня 10:00

Часовой пояс: GMT



Вы не можете начинать темы
Вы не можете отвечать на сообщения
Вы не можете редактировать свои сообщения
Вы не можете удалять свои сообщения
Вы не можете голосовать в опросах
Вы не можете прикреплять файлы к сообщениям
Вы не можете скачивать файлы